  0
SECTION
  2
HEADER
  9
$ACADVER
  1
AC1009
  9
$INSBASE
 10
0.0
 20
0.0
 30
0.0
  9
$EXTMIN
 10
-848.90075665853067
 20
-249.08916003516671
 30
0.0
  9
$EXTMAX
 10
287.9078211466707
 20
494.65434523514858
 30
0.0
  9
$LIMMIN
 10
0.0
 20
0.0
  9
$LIMMAX
 10
12.0
 20
9.0
  9
$ORTHOMODE
 70
     0
  9
$REGENMODE
 70
     1
  9
$FILLMODE
 70
     1
  9
$QTEXTMODE
 70
     0
  9
$MIRRTEXT
 70
     0
  9
$DRAGMODE
 70
     2
  9
$LTSCALE
 40
1.0
  9
$OSMODE
 70
     0
  9
$ATTMODE
 70
     1
  9
$TEXTSIZE
 40
0.2
  9
$TRACEWID
 40
0.05
  9
$TEXTSTYLE
  7
STANDARD
  9
$CLAYER
  8
0
  9
$CELTYPE
  6
BYLAYER
  9
$CECOLOR
 62
   256
  9
$DIMSCALE
 40
1.0
  9
$DIMASZ
 40
0.18
  9
$DIMEXO
 40
0.0625
  9
$DIMDLI
 40
0.38
  9
$DIMRND
 40
0.0
  9
$DIMDLE
 40
0.0
  9
$DIMEXE
 40
0.18
  9
$DIMTP
 40
0.0
  9
$DIMTM
 40
0.0
  9
$DIMTXT
 40
0.18
  9
$DIMCEN
 40
0.09
  9
$DIMTSZ
 40
0.0
  9
$DIMTOL
 70
     0
  9
$DIMLIM
 70
     0
  9
$DIMTIH
 70
     1
  9
$DIMTOH
 70
     1
  9
$DIMSE1
 70
     0
  9
$DIMSE2
 70
     0
  9
$DIMTAD
 70
     0
  9
$DIMZIN
 70
     0
  9
$DIMBLK
  1

  9
$DIMASO
 70
     1
  9
$DIMSHO
 70
     1
  9
$DIMPOST
  1

  9
$DIMAPOST
  1

  9
$DIMALT
 70
     0
  9
$DIMALTD
 70
     2
  9
$DIMALTF
 40
25.399999999999999
  9
$DIMLFAC
 40
1.0
  9
$DIMTOFL
 70
     0
  9
$DIMTVP
 40
0.0
  9
$DIMTIX
 70
     0
  9
$DIMSOXD
 70
     0
  9
$DIMSAH
 70
     0
  9
$DIMBLK1
  1

  9
$DIMBLK2
  1

  9
$DIMSTYLE
  2
STANDARD
  9
$DIMCLRD
 70
     0
  9
$DIMCLRE
 70
     0
  9
$DIMCLRT
 70
     0
  9
$DIMTFAC
 40
1.0
  9
$DIMGAP
 40
0.09
  9
$LUNITS
 70
     2
  9
$LUPREC
 70
     4
  9
$SKETCHINC
 40
0.1
  9
$FILLETRAD
 40
0.0
  9
$AUNITS
 70
     0
  9
$AUPREC
 70
     0
  9
$MENU
  1
.
  9
$ELEVATION
 40
0.0
  9
$PELEVATION
 40
0.0
  9
$THICKNESS
 40
0.0
  9
$LIMCHECK
 70
     0
  9
$BLIPMODE
 70
     0
  9
$CHAMFERA
 40
0.0
  9
$CHAMFERB
 40
0.0
  9
$SKPOLY
 70
     0
  9
$TDCREATE
 40
2458389.757905093
  9
$TDUPDATE
 40
2458390.6745849191
  9
$TDINDWG
 40
0.0001220602
  9
$TDUSRTIMER
 40
0.0001220602
  9
$USRTIMER
 70
     1
  9
$ANGBASE
 50
0.0
  9
$ANGDIR
 70
     0
  9
$PDMODE
 70
     0
  9
$PDSIZE
 40
0.0
  9
$PLINEWID
 40
0.0
  9
$COORDS
 70
     2
  9
$SPLFRAME
 70
     0
  9
$SPLINETYPE
 70
     6
  9
$SPLINESEGS
 70
     8
  9
$ATTDIA
 70
     1
  9
$ATTREQ
 70
     0
  9
$HANDLING
 70
     1
  9
$HANDSEED
  5
898
  9
$SURFTAB1
 70
     6
  9
$SURFTAB2
 70
     6
  9
$SURFTYPE
 70
     6
  9
$SURFU
 70
     6
  9
$SURFV
 70
     6
  9
$UCSNAME
  2

  9
$UCSORG
 10
0.0
 20
0.0
 30
0.0
  9
$UCSXDIR
 10
1.0
 20
0.0
 30
0.0
  9
$UCSYDIR
 10
0.0
 20
1.0
 30
0.0
  9
$PUCSNAME
  2

  9
$PUCSORG
 10
0.0
 20
0.0
 30
0.0
  9
$PUCSXDIR
 10
1.0
 20
0.0
 30
0.0
  9
$PUCSYDIR
 10
0.0
 20
1.0
 30
0.0
  9
$USERI1
 70
     0
  9
$USERI2
 70
     0
  9
$USERI3
 70
     0
  9
$USERI4
 70
     0
  9
$USERI5
 70
     0
  9
$USERR1
 40
0.0
  9
$USERR2
 40
0.0
  9
$USERR3
 40
0.0
  9
$USERR4
 40
0.0
  9
$USERR5
 40
0.0
  9
$WORLDVIEW
 70
     1
  9
$SHADEDGE
 70
     3
  9
$SHADEDIF
 70
    70
  9
$TILEMODE
 70
     1
  9
$MAXACTVP
 70
    64
  9
$PLIMCHECK
 70
     0
  9
$PEXTMIN
 10
25.699999999999989
 20
19.5
 30
0.0
  9
$PEXTMAX
 10
231.30000000000001
 20
175.5
 30
0.0
  9
$PLIMMIN
 10
-20.0
 20
-7.5
  9
$PLIMMAX
 10
277.0
 20
202.5
  9
$UNITMODE
 70
     0
  9
$VISRETAIN
 70
     1
  9
$PLINEGEN
 70
     0
  9
$PSLTSCALE
 70
     1
  0
ENDSEC
  0
SECTION
  2
TABLES
  0
TABLE
  2
VPORT
 70
     1
  0
VPORT
  2
*ACTIVE
 70
     0
 10
0.0
 20
0.0
 11
1.0
 21
1.0
 12
313.24348344508451
 22
121.12843161772631
 13
0.0
 23
0.0
 14
1.0
 24
1.0
 15
0.0
 25
0.0
 16
0.0
 26
0.0
 36
1.0
 17
0.0
 27
0.0
 37
0.0
 40
740.43518330578604
 41
2.815750371471025
 42
50.0
 43
0.0
 44
0.0
 50
0.0
 51
0.0
 71
     0
 72
  1000
 73
     1
 74
     1
 75
     0
 76
     0
 77
     0
 78
     0
  0
ENDTAB
  0
TABLE
  2
LTYPE
 70
     2
  0
LTYPE
  2
CONTINUOUS
 70
     0
  3
Solid line
 72
    65
 73
     0
 40
0.0
  0
LTYPE
  2
DASH
 70
     0
  3

 72
    65
 73
     2
 40
6.3499999999999996
 49
3.1749999999999998
 49
-3.1749999999999998
  0
ENDTAB
  0
TABLE
  2
LAYER
 70
    11
  0
LAYER
  2
0
 70
     0
 62
     7
  6
CONTINUOUS
  0
LAYER
  2
DEFPOINTS
 70
     0
 62
     7
  6
CONTINUOUS
  0
ENDTAB
  0
TABLE
  2
STYLE
 70
     8
  0
STYLE
  2
STANDARD
 70
     0
 40
0.0
 41
1.0
 50
0.0
 71
     0
 42
0.2
  3
txt
  4

  0
STYLE
  2
ARIAL
 70
     0
 40
12.5
 41
1.0
 50
0.0
 71
     0
 42
0.2
  3
txt
  4

  0
ENDTAB
  0
TABLE
  2
VIEW
 70
     1
  0
ENDTAB
  0
TABLE
  2
UCS
 70
     0
  0
ENDTAB
  0
TABLE
  2
APPID
 70
     6
  0
APPID
  2
ACAD
 70
     0
  0
APPID
  2
ACADANNOTATIVE
 70
     0
  0
APPID
  2
REVIT
 70
     0
  0
APPID
  2
ACAD_PSEXT
 70
     0
  0
APPID
  2
ACAD_NAV_VCDISPLAY
 70
     0
  0
APPID
  2
ACAD_MLEADERVER
 70
     0
  0
ENDTAB
  0
TABLE
  2
DIMSTYLE
 70
     4
  0
DIMSTYLE
  2
STANDARD
 70
     0
  3

  4

  5

  6

  7

 40
1.0
 41
0.18
 42
0.0625
 43
0.38
 44
0.18
 45
0.0
 46
0.0
 47
0.0
 48
0.0
140
0.18
141
0.09
142
0.0
143
25.399999999999999
144
1.0
145
0.0
146
1.0
147
0.09
 71
     0
 72
     0
 73
     1
 74
     1
 75
     0
 76
     0
 77
     0
 78
     0
170
     0
171
     2
172
     0
173
     0
174
     0
175
     0
176
     0
177
     0
178
     0
  0
DIMSTYLE
  2
DIAGONAL_-_2_5MM_ARIAL
 70
     0
  3
<>
  4

  5

  6
OBLIQUE
  7
OBLIQUE
 40
304.80000000000001
 41
0.0492125984251969
 42
0.0246062992125984
 43
0.38
 44
0.0393700787401575
 45
0.0
 46
0.0393700787401575
 47
0.0
 48
0.0
140
12.75324249946212
141
0.09
142
0.0
143
25.399999999999999
144
1.0
145
1.0
146
1.0
147
0.0287073490813648
 71
     0
 72
     0
 73
     0
 74
     0
 75
     0
 76
     0
 77
     1
 78
     0
170
     0
171
     2
172
     1
173
     1
174
     1
175
     0
176
     0
177
     0
178
     0
  0
DIMSTYLE
  2
DIAGONAL_-_2_5MM_ARIAL_1
 70
     0
  3
<>
  4

  5

  6
OBLIQUE
  7
OBLIQUE
 40
304.80000000000001
 41
0.0492125984251969
 42
0.0246062992125984
 43
0.38
 44
0.0393700787401575
 45
0.0
 46
0.0393700787401575
 47
0.0
 48
0.0
140
12.75324249946212
141
0.09
142
0.0
143
25.399999999999999
144
1.0
145
1.0
146
1.0
147
0.0287073490813648
 71
     0
 72
     0
 73
     0
 74
     0
 75
     0
 76
     0
 77
     1
 78
     0
170
     0
171
     2
172
     1
173
     1
174
     1
175
     0
176
     0
177
     0
178
     0
  0
ENDTAB
  0
ENDSEC
  0
SECTION
  2
BLOCKS
  0
BLOCK
  8
0
  2
$MODEL_SPACE
 70
     0
 10
0.0
 20
0.0
 30
0.0
  3
$MODEL_SPACE
  1

  0
ENDBLK
  5
72
  8
0
  0
BLOCK
 67
     1
  8
0
  2
$PAPER_SPACE
 70
     0
 10
0.0
 20
0.0
 30
0.0
  3
$PAPER_SPACE
  1

  0
ENDBLK
  5
76
 67
     1
  8
0
  0
BLOCK
  8
0
  2
_OBLIQUE
 70
     0
 10
0.0
 20
0.0
 30
0.0
  3
_OBLIQUE
  1

  0
LINE
  5
279
  8
0
  6
BYBLOCK
 62
     0
 10
-0.5
 20
-0.5
 30
0.0
 11
0.5
 21
0.5
 31
0.0
  0
ENDBLK
  5
27B
  8
0
  0
BLOCK
  8
0
  2
DIMBLOCK1-SH130_-_FASCIA_D
 70
     0
 10
0.0
 20
0.0
 30
0.0
  3
DIMBLOCK1-SH130_-_FASCIA_D
  1

  0
LINE
  5
436
  8
0
 62
     0
 10
-53.555367502467632
 20
266.10153376437461
 30
0.0
 11
-71.695466023710907
 21
315.94104483816278
 31
0.0
  0
LINE
  5
437
  8
0
 62
     0
 10
-419.06515107494289
 20
130.04769465589311
 30
0.0
 11
-438.17558813020668
 21
182.55318894112881
 31
0.0
  0
LINE
  5
438
  8
0
 62
     0
 10
-56.314912854371549
 20
308.76897510864097
 30
0.0
 11
-445.3476578597286
 21
167.17263577178949
 31
0.0
  0
INSERT
  5
439
  8
0
 62
     0
  2
_OBLIQUE
 10
-67.591224303802193
 20
304.6647333887322
 30
0.0
 41
15.0
 42
15.0
 43
15.0
 50
20.00000000000361
  0
INSERT
  5
43A
  8
0
 62
     0
  2
_OBLIQUE
 10
-434.07134641029802
 20
171.2768774916982
 30
0.0
 41
15.0
 42
15.0
 43
15.0
 50
200.00000000000361
  0
INSERT
  5
43B
  8
0
  2
*U53
 10
0.0
 20
0.0
 30
0.0
  0
POINT
  5
43C
  8
DEFPOINTS
 62
     0
 10
-50.990216427524672
 20
259.05383910848042
 30
0.0
  0
POINT
  5
43D
  8
DEFPOINTS
 62
     0
 10
-416.5
 20
122.99999999999891
 30
0.0
  0
POINT
  5
43E
  8
DEFPOINTS
 62
     0
 10
-434.07134641029802
 20
171.2768774916982
 30
0.0
  0
ENDBLK
  5
276
  8
0
  0
BLOCK
  8
0
  2
DIMBLOCK2-SH130_-_FASCIA_D
 70
     0
 10
0.0
 20
0.0
 30
0.0
  3
DIMBLOCK2-SH130_-_FASCIA_D
  1

  0
LINE
  5
42B
  8
0
 62
     0
 10
-468.80937540362243
 20
133.13775346114161
 30
0.0
 11
-468.80937540362243
 21
206.1666039019947
 31
0.0
  0
LINE
  5
42C
  8
0
 62
     0
 10
-418.4999999999996
 20
136.7444533974016
 30
0.0
 11
-418.4999999999996
 21
206.1666039019947
 31
0.0
  0
LINE
  5
42D
  8
0
 62
     0
 10
-480.80937540362243
 20
194.16660390199459
 30
0.0
 11
-406.49999999999949
 21
194.16660390199459
 31
0.0
  0
LINE
  5
42E
  8
0
 62
     0
 10
-443.65468770181099
 20
194.16660390199459
 30
0.0
 11
-648.40280304325108
 21
237.1073746135107
 31
0.0
  0
LINE
  5
42F
  8
0
 62
     0
 10
-648.40280304325108
 20
237.1073746135107
 30
0.0
 11
-848.90075665853067
 21
237.1073746135107
 31
0.0
  0
INSERT
  5
430
  8
0
  2
*U52
 10
0.0
 20
0.0
 30
0.0
  0
INSERT
  5
431
  8
0
 62
     0
  2
_OBLIQUE
 10
-468.80937540362243
 20
194.16660390199459
 30
0.0
 41
15.0
 42
15.0
 43
15.0
 50
180.0
  0
INSERT
  5
432
  8
0
 62
     0
  2
_OBLIQUE
 10
-418.4999999999996
 20
194.16660390199459
 30
0.0
 41
15.0
 42
15.0
 43
15.0
  0
POINT
  5
433
  8
DEFPOINTS
 62
     0
 10
-468.80937540362243
 20
125.6377534611416
 30
0.0
  0
POINT
  5
434
  8
DEFPOINTS
 62
     0
 10
-418.4999999999996
 20
129.2444533974016
 30
0.0
  0
POINT
  5
435
  8
DEFPOINTS
 62
     0
 10
-418.4999999999996
 20
194.16660390199459
 30
0.0
  0
ENDBLK
  5
29E
  8
0
  0
BLOCK
  8
0
  2
*U28
 70
     1
 10
0.0
 20
0.0
 30
0.0
  3
*U28
  1

  0
SOLID
  5
4FE
  8
0
  6
CONTINUOUS
 10
-108.5459601297879
 20
225.01675251082679
 30
0.0
 11
-109.5026687107006
 21
224.826451342105
 31
0.0
 12
-107.5892515488752
 22
224.826451342105
 32
0.0
 13
-107.5892515488752
 23
224.826451342105
 33
0.0
210
0.0
220
0.0
230
1.0
  0
SOLID
  5
4FF
  8
0
  6
CONTINUOUS
 10
-109.5026687107006
 20
224.826451342105
 30
0.0
 11
-110.3137270827543
 21
224.2845194637932
 31
0.0
 12
-106.7781931768215
 22
224.2845194637932
 32
0.0
 13
-106.7781931768215
 23
224.2845194637932
 33
0.0
210
0.0
220
0.0
230
1.0
  0
SOLID
  5
500
  8
0
  6
CONTINUOUS
 10
109.5026687107006
 20
224.826451342105
 30
0.0
 11
107.5892515488752
 21
224.826451342105
 31
0.0
 12
106.7781931768215
 22
224.2845194637932
 32
0.0
 13
106.7781931768215
 23
224.2845194637932
 33
0.0
210
0.0
220
0.0
230
-1.0
  0
SOLID
  5
501
  8
0
  6
CONTINUOUS
 10
-110.3137270827543
 20
224.2845194637932
 30
0.0
 11
-110.8556589610661
 21
223.47346109173961
 31
0.0
 12
-106.2362612985097
 22
223.47346109173961
 32
0.0
 13
-106.2362612985097
 23
223.47346109173961
 33
0.0
210
0.0
220
0.0
230
1.0
  0
SOLID
  5
502
  8
0
  6
CONTINUOUS
 10
110.3137270827543
 20
224.2845194637932
 30
0.0
 11
106.7781931768215
 21
224.2845194637932
 31
0.0
 12
106.2362612985097
 22
223.47346109173961
 32
0.0
 13
106.2362612985097
 23
223.47346109173961
 33
0.0
210
0.0
220
0.0
230
-1.0
  0
SOLID
  5
503
  8
0
  6
CONTINUOUS
 10
-110.8556589610661
 20
223.47346109173961
 30
0.0
 11
-111.0459601297879
 21
222.51675251082679
 31
0.0
 12
-106.0459601297879
 22
222.51675251082679
 32
0.0
 13
-106.0459601297879
 23
222.51675251082679
 33
0.0
210
0.0
220
0.0
230
1.0
  0
SOLID
  5
504
  8
0
  6
CONTINUOUS
 10
110.8556589610661
 20
223.47346109173961
 30
0.0
 11
106.2362612985097
 21
223.47346109173961
 31
0.0
 12
106.0459601297879
 22
222.51675251082679
 32
0.0
 13
106.0459601297879
 23
222.51675251082679
 33
0.0
210
0.0
220
0.0
230
-1.0
  0
SOLID
  5
505
  8
0
  6
CONTINUOUS
 10
-111.0459601297879
 20
222.51675251082679
 30
0.0
 11
-110.8556589610661
 21
221.56004392991409
 31
0.0
 12
-106.2362612985097
 22
221.56004392991409
 32
0.0
 13
-106.2362612985097
 23
221.56004392991409
 33
0.0
  0
SOLID
  5
506
  8
0
  6
CONTINUOUS
 10
111.0459601297879
 20
222.51675251082679
 30
0.0
 11
106.0459601297879
 21
222.51675251082679
 31
0.0
 12
106.2362612985097
 22
221.56004392991409
 32
0.0
 13
106.2362612985097
 23
221.56004392991409
 33
0.0
210
0.0
220
0.0
230
-1.0
  0
SOLID
  5
507
  8
0
  6
CONTINUOUS
 10
-110.8556589610661
 20
221.56004392991409
 30
0.0
 11
-110.3137270827543
 21
220.74898555786041
 31
0.0
 12
-106.7781931768215
 22
220.74898555786041
 32
0.0
 13
-106.7781931768215
 23
220.74898555786041
 33
0.0
210
0.0
220
0.0
230
1.0
  0
SOLID
  5
508
  8
0
  6
CONTINUOUS
 10
110.8556589610661
 20
221.56004392991409
 30
0.0
 11
106.2362612985097
 21
221.56004392991409
 31
0.0
 12
106.7781931768215
 22
220.74898555786041
 32
0.0
 13
106.7781931768215
 23
220.74898555786041
 33
0.0
210
0.0
220
0.0
230
-1.0
  0
SOLID
  5
509
  8
0
  6
CONTINUOUS
 10
109.5026687107006
 20
220.20705367954861
 30
0.0
 11
107.5892515488752
 21
220.20705367954861
 31
0.0
 12
108.5459601297879
 22
220.01675251082679
 32
0.0
 13
108.5459601297879
 23
220.01675251082679
 33
0.0
210
0.0
220
0.0
230
-1.0
  0
SOLID
  5
50A
  8
0
  6
CONTINUOUS
 10
-110.3137270827543
 20
220.74898555786041
 30
0.0
 11
-109.5026687107006
 21
220.20705367954861
 31
0.0
 12
-107.5892515488752
 22
220.20705367954861
 32
0.0
 13
-107.5892515488752
 23
220.20705367954861
 33
0.0
  0
SOLID
  5
50B
  8
0
  6
CONTINUOUS
 10
110.3137270827543
 20
220.74898555786041
 30
0.0
 11
106.7781931768215
 21
220.74898555786041
 31
0.0
 12
107.5892515488752
 22
220.20705367954861
 32
0.0
 13
107.5892515488752
 23
220.20705367954861
 33
0.0
210
0.0
220
0.0
230
-1.0
  0
LINE
  5
50C
  8
0
  6
CONTINUOUS
 10
-108.5459601297879
 20
225.01675251082679
 30
0.0
 11
-109.5026687107006
 21
224.826451342105
 31
0.0
  0
LINE
  5
50D
  8
0
  6
CONTINUOUS
 10
-107.5892515488752
 20
224.826451342105
 30
0.0
 11
-108.5459601297879
 21
225.01675251082679
 31
0.0
  0
LINE
  5
50E
  8
0
  6
CONTINUOUS
 10
-109.5026687107006
 20
224.826451342105
 30
0.0
 11
-110.3137270827543
 21
224.2845194637932
 31
0.0
  0
LINE
  5
50F
  8
0
  6
CONTINUOUS
 10
-107.5892515488752
 20
224.826451342105
 30
0.0
 11
-106.7781931768215
 21
224.2845194637932
 31
0.0
  0
LINE
  5
510
  8
0
  6
CONTINUOUS
 10
-110.3137270827543
 20
224.2845194637932
 30
0.0
 11
-110.8556589610661
 21
223.47346109173961
 31
0.0
  0
LINE
  5
511
  8
0
  6
CONTINUOUS
 10
-106.7781931768215
 20
224.2845194637932
 30
0.0
 11
-106.2362612985097
 21
223.47346109173961
 31
0.0
  0
LINE
  5
512
  8
0
  6
CONTINUOUS
 10
-110.8556589610661
 20
223.47346109173961
 30
0.0
 11
-111.0459601297879
 21
222.51675251082679
 31
0.0
  0
LINE
  5
513
  8
0
  6
CONTINUOUS
 10
-106.2362612985097
 20
223.47346109173961
 30
0.0
 11
-106.0459601297879
 21
222.51675251082679
 31
0.0
  0
LINE
  5
514
  8
0
  6
CONTINUOUS
 10
-111.0459601297879
 20
222.51675251082679
 30
0.0
 11
-110.8556589610661
 21
221.56004392991409
 31
0.0
  0
LINE
  5
515
  8
0
  6
CONTINUOUS
 10
-106.0459601297879
 20
222.51675251082679
 30
0.0
 11
-106.2362612985097
 21
221.56004392991409
 31
0.0
  0
LINE
  5
516
  8
0
  6
CONTINUOUS
 10
-110.8556589610661
 20
221.56004392991409
 30
0.0
 11
-110.3137270827543
 21
220.74898555786041
 31
0.0
  0
LINE
  5
517
  8
0
  6
CONTINUOUS
 10
-106.2362612985097
 20
221.56004392991409
 30
0.0
 11
-106.7781931768215
 21
220.74898555786041
 31
0.0
  0
LINE
  5
518
  8
0
  6
CONTINUOUS
 10
-107.5892515488752
 20
220.20705367954861
 30
0.0
 11
-108.5459601297879
 21
220.01675251082679
 31
0.0
  0
LINE
  5
519
  8
0
  6
CONTINUOUS
 10
-108.5459601297879
 20
220.01675251082679
 30
0.0
 11
-109.5026687107006
 21
220.20705367954861
 31
0.0
  0
LINE
  5
51A
  8
0
  6
CONTINUOUS
 10
-110.3137270827543
 20
220.74898555786041
 30
0.0
 11
-109.5026687107006
 21
220.20705367954861
 31
0.0
  0
LINE
  5
51B
  8
0
  6
CONTINUOUS
 10
-106.7781931768215
 20
220.74898555786041
 30
0.0
 11
-107.5892515488752
 21
220.20705367954861
 31
0.0
  0
ENDBLK
  5
51D
  8
0
  0
BLOCK
  8
0
  2
*U29
 70
     1
 10
0.0
 20
0.0
 30
0.0
  3
*U29
  1

  0
TEXT
  5
51F
  8
0
 10
-723.03995198447478
 20
472.3586396393722
 30
0.0
 40
12.5
  1
25x150mm Tile batten on
  7
ARIAL
  0
TEXT
  5
520
  8
0
 10
-723.2531170595089
 20
452.73826656327662
 30
0.0
 40
12.5
  1
900mm truss spacing's
  7
ARIAL
  0
ENDBLK
  5
522
  8
0
  0
BLOCK
  8
0
  2
*U30
 70
     1
 10
0.0
 20
0.0
 30
0.0
  3
*U30
  1

  0
SOLID
  5
524
  8
0
  6
CONTINUOUS
 10
-363.14888275543939
 20
153.90054959138459
 30
0.0
 11
-364.10559133635218
 21
153.7102484226628
 31
0.0
 12
-362.19217417452671
 22
153.7102484226628
 32
0.0
 13
-362.19217417452671
 23
153.7102484226628
 33
0.0
210
0.0
220
0.0
230
1.0
  0
SOLID
  5
525
  8
0
  6
CONTINUOUS
 10
-364.10559133635218
 20
153.7102484226628
 30
0.0
 11
-364.91664970840583
 21
153.168316544351
 31
0.0
 12
-361.38111580247312
 22
153.168316544351
 32
0.0
 13
-361.38111580247312
 23
153.168316544351
 33
0.0
210
0.0
220
0.0
230
1.0
  0
SOLID
  5
526
  8
0
  6
CONTINUOUS
 10
364.10559133635218
 20
153.7102484226628
 30
0.0
 11
362.19217417452671
 21
153.7102484226628
 31
0.0
 12
361.38111580247312
 22
153.168316544351
 32
0.0
 13
361.38111580247312
 23
153.168316544351
 33
0.0
210
0.0
220
0.0
230
-1.0
  0
SOLID
  5
527
  8
0
  6
CONTINUOUS
 10
-364.91664970840583
 20
153.168316544351
 30
0.0
 11
-365.45858158671768
 21
152.35725817229729
 31
0.0
 12
-360.8391839241612
 22
152.35725817229729
 32
0.0
 13
-360.8391839241612
 23
152.35725817229729
 33
0.0
210
0.0
220
0.0
230
1.0
  0
SOLID
  5
528
  8
0
  6
CONTINUOUS
 10
364.91664970840583
 20
153.168316544351
 30
0.0
 11
361.38111580247312
 21
153.168316544351
 31
0.0
 12
360.8391839241612
 22
152.35725817229729
 32
0.0
 13
360.8391839241612
 23
152.35725817229729
 33
0.0
210
0.0
220
0.0
230
-1.0
  0
SOLID
  5
529
  8
0
  6
CONTINUOUS
 10
-365.45858158671768
 20
152.35725817229729
 30
0.0
 11
-365.6488827554395
 21
151.40054959138459
 31
0.0
 12
-360.64888275543939
 22
151.40054959138459
 32
0.0
 13
-360.64888275543939
 23
151.40054959138459
 33
0.0
210
0.0
220
0.0
230
1.0
  0
SOLID
  5
52A
  8
0
  6
CONTINUOUS
 10
365.45858158671768
 20
152.35725817229729
 30
0.0
 11
360.8391839241612
 21
152.35725817229729
 31
0.0
 12
360.64888275543939
 22
151.40054959138459
 32
0.0
 13
360.64888275543939
 23
151.40054959138459
 33
0.0
210
0.0
220
0.0
230
-1.0
  0
SOLID
  5
52B
  8
0
  6
CONTINUOUS
 10
-365.6488827554395
 20
151.40054959138459
 30
0.0
 11
-365.45858158671768
 21
150.4438410104718
 31
0.0
 12
-360.8391839241612
 22
150.4438410104718
 32
0.0
 13
-360.8391839241612
 23
150.4438410104718
 33
0.0
  0
SOLID
  5
52C
  8
0
  6
CONTINUOUS
 10
365.6488827554395
 20
151.40054959138459
 30
0.0
 11
360.64888275543939
 21
151.40054959138459
 31
0.0
 12
360.8391839241612
 22
150.4438410104718
 32
0.0
 13
360.8391839241612
 23
150.4438410104718
 33
0.0
210
0.0
220
0.0
230
-1.0
  0
SOLID
  5
52D
  8
0
  6
CONTINUOUS
 10
-365.45858158671768
 20
150.4438410104718
 30
0.0
 11
-364.91664970840583
 21
149.63278263841809
 31
0.0
 12
-361.38111580247312
 22
149.63278263841809
 32
0.0
 13
-361.38111580247312
 23
149.63278263841809
 33
0.0
210
0.0
220
0.0
230
1.0
  0
SOLID
  5
52E
  8
0
  6
CONTINUOUS
 10
365.45858158671768
 20
150.4438410104718
 30
0.0
 11
360.8391839241612
 21
150.4438410104718
 31
0.0
 12
361.38111580247312
 22
149.63278263841809
 32
0.0
 13
361.38111580247312
 23
149.63278263841809
 33
0.0
210
0.0
220
0.0
230
-1.0
  0
SOLID
  5
52F
  8
0
  6
CONTINUOUS
 10
364.10559133635218
 20
149.09085076010629
 30
0.0
 11
362.19217417452671
 21
149.09085076010629
 31
0.0
 12
363.14888275543939
 22
148.9005495913845
 32
0.0
 13
363.14888275543939
 23
148.9005495913845
 33
0.0
210
0.0
220
0.0
230
-1.0
  0
SOLID
  5
530
  8
0
  6
CONTINUOUS
 10
-364.91664970840583
 20
149.63278263841809
 30
0.0
 11
-364.10559133635218
 21
149.09085076010629
 31
0.0
 12
-362.19217417452671
 22
149.09085076010629
 32
0.0
 13
-362.19217417452671
 23
149.09085076010629
 33
0.0
210
0.0
220
0.0
230
1.0
  0
SOLID
  5
531
  8
0
  6
CONTINUOUS
 10
364.91664970840583
 20
149.63278263841809
 30
0.0
 11
361.38111580247312
 21
149.63278263841809
 31
0.0
 12
362.19217417452671
 22
149.09085076010629
 32
0.0
 13
362.19217417452671
 23
149.09085076010629
 33
0.0
210
0.0
220
0.0
230
-1.0
  0
LINE
  5
532
  8
0
  6
CONTINUOUS
 10
-363.14888275543939
 20
153.90054959138459
 30
0.0
 11
-364.10559133635218
 21
153.7102484226628
 31
0.0
  0
LINE
  5
533
  8
0
  6
CONTINUOUS
 10
-362.19217417452671
 20
153.7102484226628
 30
0.0
 11
-363.14888275543939
 21
153.90054959138459
 31
0.0
  0
LINE
  5
534
  8
0
  6
CONTINUOUS
 10
-364.10559133635218
 20
153.7102484226628
 30
0.0
 11
-364.91664970840583
 21
153.168316544351
 31
0.0
  0
LINE
  5
535
  8
0
  6
CONTINUOUS
 10
-362.19217417452671
 20
153.7102484226628
 30
0.0
 11
-361.38111580247312
 21
153.168316544351
 31
0.0
  0
LINE
  5
536
  8
0
  6
CONTINUOUS
 10
-364.91664970840583
 20
153.168316544351
 30
0.0
 11
-365.45858158671768
 21
152.35725817229729
 31
0.0
  0
LINE
  5
537
  8
0
  6
CONTINUOUS
 10
-361.38111580247312
 20
153.168316544351
 30
0.0
 11
-360.8391839241612
 21
152.35725817229729
 31
0.0
  0
LINE
  5
538
  8
0
  6
CONTINUOUS
 10
-365.45858158671768
 20
152.35725817229729
 30
0.0
 11
-365.6488827554395
 21
151.40054959138459
 31
0.0
  0
LINE
  5
539
  8
0
  6
CONTINUOUS
 10
-360.8391839241612
 20
152.35725817229729
 30
0.0
 11
-360.64888275543939
 21
151.40054959138459
 31
0.0
  0
LINE
  5
53A
  8
0
  6
CONTINUOUS
 10
-365.6488827554395
 20
151.40054959138459
 30
0.0
 11
-365.45858158671768
 21
150.4438410104718
 31
0.0
  0
LINE
  5
53B
  8
0
  6
CONTINUOUS
 10
-360.64888275543939
 20
151.40054959138459
 30
0.0
 11
-360.8391839241612
 21
150.4438410104718
 31
0.0
  0
LINE
  5
53C
  8
0
  6
CONTINUOUS
 10
-365.45858158671768
 20
150.4438410104718
 30
0.0
 11
-364.91664970840583
 21
149.63278263841809
 31
0.0
  0
LINE
  5
53D
  8
0
  6
CONTINUOUS
 10
-360.8391839241612
 20
150.4438410104718
 30
0.0
 11
-361.38111580247312
 21
149.63278263841809
 31
0.0
  0
LINE
  5
53E
  8
0
  6
CONTINUOUS
 10
-362.19217417452671
 20
149.09085076010629
 30
0.0
 11
-363.14888275543939
 21
148.9005495913845
 31
0.0
  0
LINE
  5
53F
  8
0
  6
CONTINUOUS
 10
-363.14888275543939
 20
148.9005495913845
 30
0.0
 11
-364.10559133635218
 21
149.09085076010629
 31
0.0
  0
LINE
  5
540
  8
0
  6
CONTINUOUS
 10
-364.91664970840583
 20
149.63278263841809
 30
0.0
 11
-364.10559133635218
 21
149.09085076010629
 31
0.0
  0
LINE
  5
541
  8
0
  6
CONTINUOUS
 10
-361.38111580247312
 20
149.63278263841809
 30
0.0
 11
-362.19217417452671
 21
149.09085076010629
 31
0.0
  0
ENDBLK
  5
543
  8
0
  0
BLOCK
  8
0
  2
*U31
 70
     1
 10
0.0
 20
0.0
 30
0.0
  3
*U31
  1

  0
TEXT
  5
545
  8
0
 10
-729.43534840953862
 20
295.4544768655511
 30
0.0
 40
12.5
  1
Galvanised nail with
  7
ARIAL
  0
TEXT
  5
546
  8
0
 10
-729.65704008757405
 20
275.83410378945553
 30
0.0
 40
12.5
  1
neoprene washer
  7
ARIAL
  0
ENDBLK
  5
548
  8
0
  0
BLOCK
  8
0
  2
*U32
 70
     1
 10
0.0
 20
0.0
 30
0.0
  3
*U32
  1

  0
SOLID
  5
54A
  8
0
  6
CONTINUOUS
 10
-489.30972406980283
 20
56.372406359171642
 30
0.0
 11
-490.26643265071561
 21
56.18210519044986
 31
0.0
 12
-488.35301548889021
 22
56.18210519044986
 32
0.0
 13
-488.35301548889021
 23
56.18210519044986
 33
0.0
  0
SOLID
  5
54B
  8
0
  6
CONTINUOUS
 10
-490.26643265071561
 20
56.18210519044986
 30
0.0
 11
-491.07749102276921
 21
55.640173312138018
 31
0.0
 12
-487.5419571168365
 22
55.640173312138018
 32
0.0
 13
-487.5419571168365
 23
55.640173312138018
 33
0.0
210
0.0
220
0.0
230
1.0
  0
SOLID
  5
54C
  8
0
  6
CONTINUOUS
 10
490.26643265071561
 20
56.18210519044986
 30
0.0
 11
488.35301548889021
 21
56.18210519044986
 31
0.0
 12
487.5419571168365
 22
55.640173312138018
 32
0.0
 13
487.5419571168365
 23
55.640173312138018
 33
0.0
210
0.0
220
0.0
230
-1.0
  0
SOLID
  5
54D
  8
0
  6
CONTINUOUS
 10
-491.07749102276921
 20
55.640173312138018
 30
0.0
 11
-491.61942290108112
 21
54.829114940084402
 31
0.0
 12
-487.0000252385247
 22
54.829114940084402
 32
0.0
 13
-487.0000252385247
 23
54.829114940084402
 33
0.0
210
0.0
220
0.0
230
1.0
  0
SOLID
  5
54E
  8
0
  6
CONTINUOUS
 10
491.07749102276921
 20
55.640173312138018
 30
0.0
 11
487.5419571168365
 21
55.640173312138018
 31
0.0
 12
487.0000252385247
 22
54.829114940084402
 32
0.0
 13
487.0000252385247
 23
54.829114940084402
 33
0.0
210
0.0
220
0.0
230
-1.0
  0
SOLID
  5
54F
  8
0
  6
CONTINUOUS
 10
-491.61942290108112
 20
54.829114940084402
 30
0.0
 11
-491.80972406980283
 21
53.872406359171691
 31
0.0
 12
-486.80972406980288
 22
53.872406359171691
 32
0.0
 13
-486.80972406980288
 23
53.872406359171691
 33
0.0
210
0.0
220
0.0
230
1.0
  0
SOLID
  5
550
  8
0
  6
CONTINUOUS
 10
491.61942290108112
 20
54.829114940084402
 30
0.0
 11
487.0000252385247
 21
54.829114940084402
 31
0.0
 12
486.80972406980288
 22
53.872406359171691
 32
0.0
 13
486.80972406980288
 23
53.872406359171691
 33
0.0
210
0.0
220
0.0
230
-1.0
  0
SOLID
  5
551
  8
0
  6
CONTINUOUS
 10
-491.80972406980283
 20
53.872406359171691
 30
0.0
 11
-491.61942290108112
 21
52.915697778258988
 31
0.0
 12
-487.0000252385247
 22
52.915697778258988
 32
0.0
 13
-487.0000252385247
 23
52.915697778258988
 33
0.0
210
0.0
220
0.0
230
1.0
  0
SOLID
  5
552
  8
0
  6
CONTINUOUS
 10
491.80972406980283
 20
53.872406359171691
 30
0.0
 11
486.80972406980288
 21
53.872406359171691
 31
0.0
 12
487.0000252385247
 22
52.915697778258988
 32
0.0
 13
487.0000252385247
 23
52.915697778258988
 33
0.0
210
0.0
220
0.0
230
-1.0
  0
SOLID
  5
553
  8
0
  6
CONTINUOUS
 10
-491.61942290108112
 20
52.915697778258988
 30
0.0
 11
-491.07749102276921
 21
52.104639406205372
 31
0.0
 12
-487.5419571168365
 22
52.104639406205372
 32
0.0
 13
-487.5419571168365
 23
52.104639406205372
 33
0.0
210
0.0
220
0.0
230
1.0
  0
SOLID
  5
554
  8
0
  6
CONTINUOUS
 10
491.61942290108112
 20
52.915697778258988
 30
0.0
 11
487.0000252385247
 21
52.915697778258988
 31
0.0
 12
487.5419571168365
 22
52.104639406205372
 32
0.0
 13
487.5419571168365
 23
52.104639406205372
 33
0.0
210
0.0
220
0.0
230
-1.0
  0
SOLID
  5
555
  8
0
  6
CONTINUOUS
 10
490.26643265071561
 20
51.562707527893529
 30
0.0
 11
488.35301548889021
 21
51.562707527893529
 31
0.0
 12
489.30972406980283
 22
51.372406359171762
 32
0.0
 13
489.30972406980283
 23
51.372406359171762
 33
0.0
210
0.0
220
0.0
230
-1.0
  0
SOLID
  5
556
  8
0
  6
CONTINUOUS
 10
-491.07749102276921
 20
52.104639406205372
 30
0.0
 11
-490.26643265071561
 21
51.562707527893529
 31
0.0
 12
-488.35301548889021
 22
51.562707527893529
 32
0.0
 13
-488.35301548889021
 23
51.562707527893529
 33
0.0
  0
SOLID
  5
557
  8
0
  6
CONTINUOUS
 10
491.07749102276921
 20
52.104639406205372
 30
0.0
 11
487.5419571168365
 21
52.104639406205372
 31
0.0
 12
488.35301548889021
 22
51.562707527893529
 32
0.0
 13
488.35301548889021
 23
51.562707527893529
 33
0.0
210
0.0
220
0.0
230
-1.0
  0
LINE
  5
558
  8
0
  6
CONTINUOUS
 10
-489.30972406980283
 20
56.372406359171642
 30
0.0
 11
-490.26643265071561
 21
56.18210519044986
 31
0.0
  0
LINE
  5
559
  8
0
  6
CONTINUOUS
 10
-488.35301548889021
 20
56.18210519044986
 30
0.0
 11
-489.30972406980283
 21
56.372406359171642
 31
0.0
  0
LINE
  5
55A
  8
0
  6
CONTINUOUS
 10
-490.26643265071561
 20
56.18210519044986
 30
0.0
 11
-491.07749102276921
 21
55.640173312138018
 31
0.0
  0
LINE
  5
55B
  8
0
  6
CONTINUOUS
 10
-488.35301548889021
 20
56.18210519044986
 30
0.0
 11
-487.5419571168365
 21
55.640173312138018
 31
0.0
  0
LINE
  5
55C
  8
0
  6
CONTINUOUS
 10
-491.07749102276921
 20
55.640173312138018
 30
0.0
 11
-491.61942290108112
 21
54.829114940084402
 31
0.0
  0
LINE
  5
55D
  8
0
  6
CONTINUOUS
 10
-487.5419571168365
 20
55.640173312138018
 30
0.0
 11
-487.0000252385247
 21
54.829114940084402
 31
0.0
  0
LINE
  5
55E
  8
0
  6
CONTINUOUS
 10
-491.61942290108112
 20
54.829114940084402
 30
0.0
 11
-491.80972406980283
 21
53.872406359171691
 31
0.0
  0
LINE
  5
55F
  8
0
  6
CONTINUOUS
 10
-487.0000252385247
 20
54.829114940084402
 30
0.0
 11
-486.80972406980288
 21
53.872406359171691
 31
0.0
  0
LINE
  5
560
  8
0
  6
CONTINUOUS
 10
-491.80972406980283
 20
53.872406359171691
 30
0.0
 11
-491.61942290108112
 21
52.915697778258988
 31
0.0
  0
LINE
  5
561
  8
0
  6
CONTINUOUS
 10
-486.80972406980288
 20
53.872406359171691
 30
0.0
 11
-487.0000252385247
 21
52.915697778258988
 31
0.0
  0
LINE
  5
562
  8
0
  6
CONTINUOUS
 10
-491.61942290108112
 20
52.915697778258988
 30
0.0
 11
-491.07749102276921
 21
52.104639406205372
 31
0.0
  0
LINE
  5
563
  8
0
  6
CONTINUOUS
 10
-487.0000252385247
 20
52.915697778258988
 30
0.0
 11
-487.5419571168365
 21
52.104639406205372
 31
0.0
  0
LINE
  5
564
  8
0
  6
CONTINUOUS
 10
-488.35301548889021
 20
51.562707527893529
 30
0.0
 11
-489.30972406980283
 21
51.372406359171762
 31
0.0
  0
LINE
  5
565
  8
0
  6
CONTINUOUS
 10
-489.30972406980283
 20
51.372406359171762
 30
0.0
 11
-490.26643265071561
 21
51.562707527893529
 31
0.0
  0
LINE
  5
566
  8
0
  6
CONTINUOUS
 10
-491.07749102276921
 20
52.104639406205372
 30
0.0
 11
-490.26643265071561
 21
51.562707527893529
 31
0.0
  0
LINE
  5
567
  8
0
  6
CONTINUOUS
 10
-487.5419571168365
 20
52.104639406205372
 30
0.0
 11
-488.35301548889021
 21
51.562707527893529
 31
0.0
  0
ENDBLK
  5
569
  8
0
  0
BLOCK
  8
0
  2
*U33
 70
     1
 10
0.0
 20
0.0
 30
0.0
  3
*U33
  1

  0
TEXT
  5
56B
  8
0
 10
-728.04039615851525
 20
-16.757423734693951
 30
0.0
 40
12.5
  1
Selected fascia* & gutter
  7
ARIAL
  0
TEXT
  5
56C
  8
0
 10
-728.31324745455879
 20
-36.377796810789533
 30
0.0
 40
12.5
  1
(Fascia board height not to
  7
ARIAL
  0
TEXT
  5
56D
  8
0
 10
-727.89544390749211
 20
-55.998169886885087
 30
0.0
 40
12.5
  1
exceed batten height)
  7
ARIAL
  0
ENDBLK
  5
56F
  8
0
  0
BLOCK
  8
0
  2
*U34
 70
     1
 10
0.0
 20
0.0
 30
0.0
  3
*U34
  1

  0
SOLID
  5
571
  8
0
  6
CONTINUOUS
 10
-409.36626717916442
 20
-30.385983196113049
 30
0.0
 11
-410.3229757600771
 21
-30.57628436483483
 31
0.0
 12
-408.40955859825169
 22
-30.57628436483483
 32
0.0
 13
-408.40955859825169
 23
-30.57628436483483
 33
0.0
  0
SOLID
  5
572
  8
0
  6
CONTINUOUS
 10
-410.3229757600771
 20
-30.57628436483483
 30
0.0
 11
-411.13403413213081
 21
-31.11821624314668
 31
0.0
 12
-407.59850022619798
 22
-31.11821624314668
 32
0.0
 13
-407.59850022619798
 23
-31.11821624314668
 33
0.0
210
0.0
220
0.0
230
1.0
  0
SOLID
  5
573
  8
0
  6
CONTINUOUS
 10
410.3229757600771
 20
-30.57628436483483
 30
0.0
 11
408.40955859825169
 21
-30.57628436483483
 31
0.0
 12
407.59850022619798
 22
-31.11821624314668
 32
0.0
 13
407.59850022619798
 23
-31.11821624314668
 33
0.0
210
0.0
220
0.0
230
-1.0
  0
SOLID
  5
574
  8
0
  6
CONTINUOUS
 10
-411.13403413213081
 20
-31.11821624314668
 30
0.0
 11
-411.67596601044261
 21
-31.92927461520032
 31
0.0
 12
-407.05656834788618
 22
-31.92927461520032
 32
0.0
 13
-407.05656834788618
 23
-31.92927461520032
 33
0.0
  0
SOLID
  5
575
  8
0
  6
CONTINUOUS
 10
411.13403413213081
 20
-31.11821624314668
 30
0.0
 11
407.59850022619798
 21
-31.11821624314668
 31
0.0
 12
407.05656834788618
 22
-31.92927461520032
 32
0.0
 13
407.05656834788618
 23
-31.92927461520032
 33
0.0
210
0.0
220
0.0
230
-1.0
  0
SOLID
  5
576
  8
0
  6
CONTINUOUS
 10
-411.67596601044261
 20
-31.92927461520032
 30
0.0
 11
-411.86626717916442
 21
-32.885983196113052
 31
0.0
 12
-406.86626717916442
 22
-32.885983196113052
 32
0.0
 13
-406.86626717916442
 23
-32.885983196113052
 33
0.0
210
0.0
220
0.0
230
1.0
  0
SOLID
  5
577
  8
0
  6
CONTINUOUS
 10
411.67596601044261
 20
-31.92927461520032
 30
0.0
 11
407.05656834788618
 21
-31.92927461520032
 31
0.0
 12
406.86626717916442
 22
-32.885983196113052
 32
0.0
 13
406.86626717916442
 23
-32.885983196113052
 33
0.0
210
0.0
220
0.0
230
-1.0
  0
SOLID
  5
578
  8
0
  6
CONTINUOUS
 10
-411.86626717916442
 20
-32.885983196113052
 30
0.0
 11
-411.67596601044261
 21
-33.84269177702577
 31
0.0
 12
-407.05656834788618
 22
-33.84269177702577
 32
0.0
 13
-407.05656834788618
 23
-33.84269177702577
 33
0.0
210
0.0
220
0.0
230
1.0
  0
SOLID
  5
579
  8
0
  6
CONTINUOUS
 10
411.86626717916442
 20
-32.885983196113052
 30
0.0
 11
406.86626717916442
 21
-32.885983196113052
 31
0.0
 12
407.05656834788618
 22
-33.84269177702577
 32
0.0
 13
407.05656834788618
 23
-33.84269177702577
 33
0.0
210
0.0
220
0.0
230
-1.0
  0
SOLID
  5
57A
  8
0
  6
CONTINUOUS
 10
-411.67596601044261
 20
-33.84269177702577
 30
0.0
 11
-411.13403413213081
 21
-34.653750149079407
 31
0.0
 12
-407.59850022619798
 22
-34.653750149079407
 32
0.0
 13
-407.59850022619798
 23
-34.653750149079407
 33
0.0
210
0.0
220
0.0
230
1.0
  0
SOLID
  5
57B
  8
0
  6
CONTINUOUS
 10
411.67596601044261
 20
-33.84269177702577
 30
0.0
 11
407.05656834788618
 21
-33.84269177702577
 31
0.0
 12
407.59850022619798
 22
-34.653750149079407
 32
0.0
 13
407.59850022619798
 23
-34.653750149079407
 33
0.0
210
0.0
220
0.0
230
-1.0
  0
SOLID
  5
57C
  8
0
  6
CONTINUOUS
 10
410.3229757600771
 20
-35.195682027391257
 30
0.0
 11
408.40955859825169
 21
-35.195682027391257
 31
0.0
 12
409.36626717916442
 22
-35.385983196113052
 32
0.0
 13
409.36626717916442
 23
-35.385983196113052
 33
0.0
210
0.0
220
0.0
230
-1.0
  0
SOLID
  5
57D
  8
0
  6
CONTINUOUS
 10
-411.13403413213081
 20
-34.653750149079407
 30
0.0
 11
-410.3229757600771
 21
-35.195682027391257
 31
0.0
 12
-408.40955859825169
 22
-35.195682027391257
 32
0.0
 13
-408.40955859825169
 23
-35.195682027391257
 33
0.0
210
0.0
220
0.0
230
1.0
  0
SOLID
  5
57E
  8
0
  6
CONTINUOUS
 10
411.13403413213081
 20
-34.653750149079407
 30
0.0
 11
407.59850022619798
 21
-34.653750149079407
 31
0.0
 12
408.40955859825169
 22
-35.195682027391257
 32
0.0
 13
408.40955859825169
 23
-35.195682027391257
 33
0.0
210
0.0
220
0.0
230
-1.0
  0
LINE
  5
57F
  8
0
  6
CONTINUOUS
 10
-409.36626717916442
 20
-30.385983196113049
 30
0.0
 11
-410.3229757600771
 21
-30.57628436483483
 31
0.0
  0
LINE
  5
580
  8
0
  6
CONTINUOUS
 10
-408.40955859825169
 20
-30.57628436483483
 30
0.0
 11
-409.36626717916442
 21
-30.385983196113049
 31
0.0
  0
LINE
  5
581
  8
0
  6
CONTINUOUS
 10
-410.3229757600771
 20
-30.57628436483483
 30
0.0
 11
-411.13403413213081
 21
-31.11821624314668
 31
0.0
  0
LINE
  5
582
  8
0
  6
CONTINUOUS
 10
-408.40955859825169
 20
-30.57628436483483
 30
0.0
 11
-407.59850022619798
 21
-31.11821624314668
 31
0.0
  0
LINE
  5
583
  8
0
  6
CONTINUOUS
 10
-411.13403413213081
 20
-31.11821624314668
 30
0.0
 11
-411.67596601044261
 21
-31.92927461520032
 31
0.0
  0
LINE
  5
584
  8
0
  6
CONTINUOUS
 10
-407.59850022619798
 20
-31.11821624314668
 30
0.0
 11
-407.05656834788618
 21
-31.92927461520032
 31
0.0
  0
LINE
  5
585
  8
0
  6
CONTINUOUS
 10
-411.67596601044261
 20
-31.92927461520032
 30
0.0
 11
-411.86626717916442
 21
-32.885983196113052
 31
0.0
  0
LINE
  5
586
  8
0
  6
CONTINUOUS
 10
-407.05656834788618
 20
-31.92927461520032
 30
0.0
 11
-406.86626717916442
 21
-32.885983196113052
 31
0.0
  0
LINE
  5
587
  8
0
  6
CONTINUOUS
 10
-411.86626717916442
 20
-32.885983196113052
 30
0.0
 11
-411.67596601044261
 21
-33.84269177702577
 31
0.0
  0
LINE
  5
588
  8
0
  6
CONTINUOUS
 10
-406.86626717916442
 20
-32.885983196113052
 30
0.0
 11
-407.05656834788618
 21
-33.84269177702577
 31
0.0
  0
LINE
  5
589
  8
0
  6
CONTINUOUS
 10
-411.67596601044261
 20
-33.84269177702577
 30
0.0
 11
-411.13403413213081
 21
-34.653750149079407
 31
0.0
  0
LINE
  5
58A
  8
0
  6
CONTINUOUS
 10
-407.05656834788618
 20
-33.84269177702577
 30
0.0
 11
-407.59850022619798
 21
-34.653750149079407
 31
0.0
  0
LINE
  5
58B
  8
0
  6
CONTINUOUS
 10
-408.40955859825169
 20
-35.195682027391257
 30
0.0
 11
-409.36626717916442
 21
-35.385983196113052
 31
0.0
  0
LINE
  5
58C
  8
0
  6
CONTINUOUS
 10
-409.36626717916442
 20
-35.385983196113052
 30
0.0
 11
-410.3229757600771
 21
-35.195682027391257
 31
0.0
  0
LINE
  5
58D
  8
0
  6
CONTINUOUS
 10
-411.13403413213081
 20
-34.653750149079407
 30
0.0
 11
-410.3229757600771
 21
-35.195682027391257
 31
0.0
  0
LINE
  5
58E
  8
0
  6
CONTINUOUS
 10
-407.59850022619798
 20
-34.653750149079407
 30
0.0
 11
-408.40955859825169
 21
-35.195682027391257
 31
0.0
  0
ENDBLK
  5
590
  8
0
  0
BLOCK
  8
0
  2
*U35
 70
     1
 10
0.0
 20
0.0
 30
0.0
  3
*U35
  1

  0
TEXT
  5
592
  8
0
 10
-729.1884179866189
 20
-110.3402874353245
 30
0.0
 40
12.5
  1
Fascia board
  7
ARIAL
  0
ENDBLK
  5
594
  8
0
  0
BLOCK
  8
0
  2
*U36
 70
     1
 10
0.0
 20
0.0
 30
0.0
  3
*U36
  1

  0
TEXT
  5
596
  8
0
 62
     7
 10
-729.7425403687447
 20
-199.46452594436559
 30
0.0
 40
12.5
  1
* Similar design detail for metal fascia systems
  7
ARIAL
  0
ENDBLK
  5
598
  8
0
  0
BLOCK
  8
0
  2
*U37
 70
     1
 10
0.0
 20
0.0
 30
0.0
  3
*U37
  1

  0
SOLID
  5
59A
  8
0
  6
CONTINUOUS
 10
-330.40018809166941
 20
153.90054959138459
 30
0.0
 11
-331.35689667258208
 21
153.7102484226628
 31
0.0
 12
-329.44347951075662
 22
153.7102484226628
 32
0.0
 13
-329.44347951075662
 23
153.7102484226628
 33
0.0
210
0.0
220
0.0
230
1.0
  0
SOLID
  5
59B
  8
0
  6
CONTINUOUS
 10
-331.35689667258208
 20
153.7102484226628
 30
0.0
 11
-332.16795504463568
 21
153.16831654435089
 31
0.0
 12
-328.63242113870302
 22
153.16831654435089
 32
0.0
 13
-328.63242113870302
 23
153.16831654435089
 33
0.0
210
0.0
220
0.0
230
1.0
  0
SOLID
  5
59C
  8
0
  6
CONTINUOUS
 10
331.35689667258208
 20
153.7102484226628
 30
0.0
 11
329.44347951075662
 21
153.7102484226628
 31
0.0
 12
328.63242113870302
 22
153.16831654435089
 32
0.0
 13
328.63242113870302
 23
153.16831654435089
 33
0.0
210
0.0
220
0.0
230
-1.0
  0
SOLID
  5
59D
  8
0
  6
CONTINUOUS
 10
-332.16795504463568
 20
153.16831654435089
 30
0.0
 11
-332.70988692294759
 21
152.35725817229729
 31
0.0
 12
-328.09048926039111
 22
152.35725817229729
 32
0.0
 13
-328.09048926039111
 23
152.35725817229729
 33
0.0
210
0.0
220
0.0
230
1.0
  0
SOLID
  5
59E
  8
0
  6
CONTINUOUS
 10
332.16795504463568
 20
153.16831654435089
 30
0.0
 11
328.63242113870302
 21
153.16831654435089
 31
0.0
 12
328.09048926039111
 22
152.35725817229729
 32
0.0
 13
328.09048926039111
 23
152.35725817229729
 33
0.0
210
0.0
220
0.0
230
-1.0
  0
SOLID
  5
59F
  8
0
  6
CONTINUOUS
 10
-332.70988692294759
 20
152.35725817229729
 30
0.0
 11
-332.90018809166941
 21
151.40054959138459
 31
0.0
 12
-327.90018809166929
 22
151.40054959138459
 32
0.0
 13
-327.90018809166929
 23
151.40054959138459
 33
0.0
210
0.0
220
0.0
230
1.0
  0
SOLID
  5
5A0
  8
0
  6
CONTINUOUS
 10
332.70988692294759
 20
152.35725817229729
 30
0.0
 11
328.09048926039111
 21
152.35725817229729
 31
0.0
 12
327.90018809166929
 22
151.40054959138459
 32
0.0
 13
327.90018809166929
 23
151.40054959138459
 33
0.0
210
0.0
220
0.0
230
-1.0
  0
SOLID
  5
5A1
  8
0
  6
CONTINUOUS
 10
-332.90018809166941
 20
151.40054959138459
 30
0.0
 11
-332.70988692294759
 21
150.4438410104718
 31
0.0
 12
-328.09048926039111
 22
150.4438410104718
 32
0.0
 13
-328.09048926039111
 23
150.4438410104718
 33
0.0
  0
SOLID
  5
5A2
  8
0
  6
CONTINUOUS
 10
332.90018809166941
 20
151.40054959138459
 30
0.0
 11
327.90018809166929
 21
151.40054959138459
 31
0.0
 12
328.09048926039111
 22
150.4438410104718
 32
0.0
 13
328.09048926039111
 23
150.4438410104718
 33
0.0
210
0.0
220
0.0
230
-1.0
  0
SOLID
  5
5A3
  8
0
  6
CONTINUOUS
 10
-332.70988692294759
 20
150.4438410104718
 30
0.0
 11
-332.16795504463568
 21
149.63278263841809
 31
0.0
 12
-328.63242113870302
 22
149.63278263841809
 32
0.0
 13
-328.63242113870302
 23
149.63278263841809
 33
0.0
210
0.0
220
0.0
230
1.0
  0
SOLID
  5
5A4
  8
0
  6
CONTINUOUS
 10
332.70988692294759
 20
150.4438410104718
 30
0.0
 11
328.09048926039111
 21
150.4438410104718
 31
0.0
 12
328.63242113870302
 22
149.63278263841809
 32
0.0
 13
328.63242113870302
 23
149.63278263841809
 33
0.0
210
0.0
220
0.0
230
-1.0
  0
SOLID
  5
5A5
  8
0
  6
CONTINUOUS
 10
331.35689667258208
 20
149.09085076010629
 30
0.0
 11
329.44347951075662
 21
149.09085076010629
 31
0.0
 12
330.40018809166941
 22
148.9005495913845
 32
0.0
 13
330.40018809166941
 23
148.9005495913845
 33
0.0
210
0.0
220
0.0
230
-1.0
  0
SOLID
  5
5A6
  8
0
  6
CONTINUOUS
 10
-332.16795504463568
 20
149.63278263841809
 30
0.0
 11
-331.35689667258208
 21
149.09085076010629
 31
0.0
 12
-329.44347951075662
 22
149.09085076010629
 32
0.0
 13
-329.44347951075662
 23
149.09085076010629
 33
0.0
210
0.0
220
0.0
230
1.0
  0
SOLID
  5
5A7
  8
0
  6
CONTINUOUS
 10
332.16795504463568
 20
149.63278263841809
 30
0.0
 11
328.63242113870302
 21
149.63278263841809
 31
0.0
 12
329.44347951075662
 22
149.09085076010629
 32
0.0
 13
329.44347951075662
 23
149.09085076010629
 33
0.0
210
0.0
220
0.0
230
-1.0
  0
LINE
  5
5A8
  8
0
  6
CONTINUOUS
 10
-330.40018809166941
 20
153.90054959138459
 30
0.0
 11
-331.35689667258208
 21
153.7102484226628
 31
0.0
  0
LINE
  5
5A9
  8
0
  6
CONTINUOUS
 10
-329.44347951075662
 20
153.7102484226628
 30
0.0
 11
-330.40018809166941
 21
153.90054959138459
 31
0.0
  0
LINE
  5
5AA
  8
0
  6
CONTINUOUS
 10
-331.35689667258208
 20
153.7102484226628
 30
0.0
 11
-332.16795504463568
 21
153.16831654435089
 31
0.0
  0
LINE
  5
5AB
  8
0
  6
CONTINUOUS
 10
-329.44347951075662
 20
153.7102484226628
 30
0.0
 11
-328.63242113870302
 21
153.16831654435089
 31
0.0
  0
LINE
  5
5AC
  8
0
  6
CONTINUOUS
 10
-332.16795504463568
 20
153.16831654435089
 30
0.0
 11
-332.70988692294759
 21
152.35725817229729
 31
0.0
  0
LINE
  5
5AD
  8
0
  6
CONTINUOUS
 10
-328.63242113870302
 20
153.16831654435089
 30
0.0
 11
-328.09048926039111
 21
152.35725817229729
 31
0.0
  0
LINE
  5
5AE
  8
0
  6
CONTINUOUS
 10
-332.70988692294759
 20
152.35725817229729
 30
0.0
 11
-332.90018809166941
 21
151.40054959138459
 31
0.0
  0
LINE
  5
5AF
  8
0
  6
CONTINUOUS
 10
-328.09048926039111
 20
152.35725817229729
 30
0.0
 11
-327.90018809166929
 21
151.40054959138459
 31
0.0
  0
LINE
  5
5B0
  8
0
  6
CONTINUOUS
 10
-332.90018809166941
 20
151.40054959138459
 30
0.0
 11
-332.70988692294759
 21
150.4438410104718
 31
0.0
  0
LINE
  5
5B1
  8
0
  6
CONTINUOUS
 10
-327.90018809166929
 20
151.40054959138459
 30
0.0
 11
-328.09048926039111
 21
150.4438410104718
 31
0.0
  0
LINE
  5
5B2
  8
0
  6
CONTINUOUS
 10
-332.70988692294759
 20
150.4438410104718
 30
0.0
 11
-332.16795504463568
 21
149.63278263841809
 31
0.0
  0
LINE
  5
5B3
  8
0
  6
CONTINUOUS
 10
-328.09048926039111
 20
150.4438410104718
 30
0.0
 11
-328.63242113870302
 21
149.63278263841809
 31
0.0
  0
LINE
  5
5B4
  8
0
  6
CONTINUOUS
 10
-329.44347951075662
 20
149.09085076010629
 30
0.0
 11
-330.40018809166941
 21
148.9005495913845
 31
0.0
  0
LINE
  5
5B5
  8
0
  6
CONTINUOUS
 10
-330.40018809166941
 20
148.9005495913845
 30
0.0
 11
-331.35689667258208
 21
149.09085076010629
 31
0.0
  0
LINE
  5
5B6
  8
0
  6
CONTINUOUS
 10
-332.16795504463568
 20
149.63278263841809
 30
0.0
 11
-331.35689667258208
 21
149.09085076010629
 31
0.0
  0
LINE
  5
5B7
  8
0
  6
CONTINUOUS
 10
-328.63242113870302
 20
149.63278263841809
 30
0.0
 11
-329.44347951075662
 21
149.09085076010629
 31
0.0
  0
ENDBLK
  5
5B9
  8
0
  0
BLOCK
  8
0
  2
*U38
 70
     1
 10
0.0
 20
0.0
 30
0.0
  3
*U38
  1

  0
TEXT
  5
5BB
  8
0
 10
-723.90113888761277
 20
382.93472353293907
 30
0.0
 40
12.5
  1
Underlay lapped over battens
  7
ARIAL
  0
TEXT
  5
5BC
  8
0
 10
-723.15932442649387
 20
363.3143504568435
 30
0.0
 40
12.5
  1
and fascia at eaves
  7
ARIAL
  0
ENDBLK
  5
5BE
  8
0
  0
BLOCK
  8
0
  2
*U39
 70
     1
 10
0.0
 20
0.0
 30
0.0
  3
*U39
  1

  0
SOLID
  5
5C0
  8
0
  6
CONTINUOUS
 10
137.52369968998929
 20
340.4904608438199
 30
0.0
 11
136.5669911090765
 21
340.3001596750982
 31
0.0
 12
138.48040827090199
 22
340.3001596750982
 32
0.0
 13
138.48040827090199
 23
340.3001596750982
 33
0.0
210
0.0
220
0.0
230
1.0
  0
SOLID
  5
5C1
  8
0
  6
CONTINUOUS
 10
136.5669911090765
 20
340.3001596750982
 30
0.0
 11
135.7559327370229
 21
339.7582277967864
 31
0.0
 12
139.2914666429557
 22
339.7582277967864
 32
0.0
 13
139.2914666429557
 23
339.7582277967864
 33
0.0
210
0.0
220
0.0
230
1.0
  0
SOLID
  5
5C2
  8
0
  6
CONTINUOUS
 10
-136.5669911090765
 20
340.3001596750982
 30
0.0
 11
-138.48040827090199
 21
340.3001596750982
 31
0.0
 12
-139.2914666429557
 22
339.7582277967864
 32
0.0
 13
-139.2914666429557
 23
339.7582277967864
 33
0.0
210
0.0
220
0.0
230
-1.0
  0
SOLID
  5
5C3
  8
0
  6
CONTINUOUS
 10
135.7559327370229
 20
339.7582277967864
 30
0.0
 11
135.21400085871099
 21
338.94716942473269
 31
0.0
 12
139.8333985212675
 22
338.94716942473269
 32
0.0
 13
139.8333985212675
 23
338.94716942473269
 33
0.0
210
0.0
220
0.0
230
1.0
  0
SOLID
  5
5C4
  8
0
  6
CONTINUOUS
 10
-135.7559327370229
 20
339.7582277967864
 30
0.0
 11
-139.2914666429557
 21
339.7582277967864
 31
0.0
 12
-139.8333985212675
 22
338.94716942473269
 32
0.0
 13
-139.8333985212675
 23
338.94716942473269
 33
0.0
210
0.0
220
0.0
230
-1.0
  0
SOLID
  5
5C5
  8
0
  6
CONTINUOUS
 10
135.21400085871099
 20
338.94716942473269
 30
0.0
 11
135.02369968998929
 21
337.99046084382002
 31
0.0
 12
140.02369968998929
 22
337.99046084382002
 32
0.0
 13
140.02369968998929
 23
337.99046084382002
 33
0.0
210
0.0
220
0.0
230
1.0
  0
SOLID
  5
5C6
  8
0
  6
CONTINUOUS
 10
-135.21400085871099
 20
338.94716942473269
 30
0.0
 11
-139.8333985212675
 21
338.94716942473269
 31
0.0
 12
-140.02369968998929
 22
337.99046084382002
 32
0.0
 13
-140.02369968998929
 23
337.99046084382002
 33
0.0
210
0.0
220
0.0
230
-1.0
  0
SOLID
  5
5C7
  8
0
  6
CONTINUOUS
 10
135.02369968998929
 20
337.99046084382002
 30
0.0
 11
135.21400085871099
 21
337.03375226290723
 31
0.0
 12
139.8333985212675
 22
337.03375226290723
 32
0.0
 13
139.8333985212675
 23
337.03375226290723
 33
0.0
  0
SOLID
  5
5C8
  8
0
  6
CONTINUOUS
 10
-135.02369968998929
 20
337.99046084382002
 30
0.0
 11
-140.02369968998929
 21
337.99046084382002
 31
0.0
 12
-139.8333985212675
 22
337.03375226290723
 32
0.0
 13
-139.8333985212675
 23
337.03375226290723
 33
0.0
210
0.0
220
0.0
230
-1.0
  0
SOLID
  5
5C9
  8
0
  6
CONTINUOUS
 10
135.21400085871099
 20
337.03375226290723
 30
0.0
 11
135.7559327370229
 21
336.22269389085358
 31
0.0
 12
139.2914666429557
 22
336.22269389085358
 32
0.0
 13
139.2914666429557
 23
336.22269389085358
 33
0.0
210
0.0
220
0.0
230
1.0
  0
SOLID
  5
5CA
  8
0
  6
CONTINUOUS
 10
-135.21400085871099
 20
337.03375226290723
 30
0.0
 11
-139.8333985212675
 21
337.03375226290723
 31
0.0
 12
-139.2914666429557
 22
336.22269389085358
 32
0.0
 13
-139.2914666429557
 23
336.22269389085358
 33
0.0
210
0.0
220
0.0
230
-1.0
  0
SOLID
  5
5CB
  8
0
  6
CONTINUOUS
 10
-136.5669911090765
 20
335.68076201254172
 30
0.0
 11
-138.48040827090199
 21
335.68076201254172
 31
0.0
 12
-137.52369968998929
 22
335.49046084382002
 32
0.0
 13
-137.52369968998929
 23
335.49046084382002
 33
0.0
210
0.0
220
0.0
230
-1.0
  0
SOLID
  5
5CC
  8
0
  6
CONTINUOUS
 10
135.7559327370229
 20
336.22269389085358
 30
0.0
 11
136.5669911090765
 21
335.68076201254172
 31
0.0
 12
138.48040827090199
 22
335.68076201254172
 32
0.0
 13
138.48040827090199
 23
335.68076201254172
 33
0.0
210
0.0
220
0.0
230
1.0
  0
SOLID
  5
5CD
  8
0
  6
CONTINUOUS
 10
-135.7559327370229
 20
336.22269389085358
 30
0.0
 11
-139.2914666429557
 21
336.22269389085358
 31
0.0
 12
-138.48040827090199
 22
335.68076201254172
 32
0.0
 13
-138.48040827090199
 23
335.68076201254172
 33
0.0
210
0.0
220
0.0
230
-1.0
  0
LINE
  5
5CE
  8
0
  6
CONTINUOUS
 10
137.52369968998929
 20
340.4904608438199
 30
0.0
 11
136.5669911090765
 21
340.3001596750982
 31
0.0
  0
LINE
  5
5CF
  8
0
  6
CONTINUOUS
 10
138.48040827090199
 20
340.3001596750982
 30
0.0
 11
137.52369968998929
 21
340.4904608438199
 31
0.0
  0
LINE
  5
5D0
  8
0
  6
CONTINUOUS
 10
136.5669911090765
 20
340.3001596750982
 30
0.0
 11
135.7559327370229
 21
339.7582277967864
 31
0.0
  0
LINE
  5
5D1
  8
0
  6
CONTINUOUS
 10
138.48040827090199
 20
340.3001596750982
 30
0.0
 11
139.2914666429557
 21
339.7582277967864
 31
0.0
  0
LINE
  5
5D2
  8
0
  6
CONTINUOUS
 10
135.7559327370229
 20
339.7582277967864
 30
0.0
 11
135.21400085871099
 21
338.94716942473269
 31
0.0
  0
LINE
  5
5D3
  8
0
  6
CONTINUOUS
 10
139.2914666429557
 20
339.7582277967864
 30
0.0
 11
139.8333985212675
 21
338.94716942473269
 31
0.0
  0
LINE
  5
5D4
  8
0
  6
CONTINUOUS
 10
135.21400085871099
 20
338.94716942473269
 30
0.0
 11
135.02369968998929
 21
337.99046084382002
 31
0.0
  0
LINE
  5
5D5
  8
0
  6
CONTINUOUS
 10
139.8333985212675
 20
338.94716942473269
 30
0.0
 11
140.02369968998929
 21
337.99046084382002
 31
0.0
  0
LINE
  5
5D6
  8
0
  6
CONTINUOUS
 10
135.02369968998929
 20
337.99046084382002
 30
0.0
 11
135.21400085871099
 21
337.03375226290723
 31
0.0
  0
LINE
  5
5D7
  8
0
  6
CONTINUOUS
 10
140.02369968998929
 20
337.99046084382002
 30
0.0
 11
139.8333985212675
 21
337.03375226290723
 31
0.0
  0
LINE
  5
5D8
  8
0
  6
CONTINUOUS
 10
135.21400085871099
 20
337.03375226290723
 30
0.0
 11
135.7559327370229
 21
336.22269389085358
 31
0.0
  0
LINE
  5
5D9
  8
0
  6
CONTINUOUS
 10
139.8333985212675
 20
337.03375226290723
 30
0.0
 11
139.2914666429557
 21
336.22269389085358
 31
0.0
  0
LINE
  5
5DA
  8
0
  6
CONTINUOUS
 10
138.48040827090199
 20
335.68076201254172
 30
0.0
 11
137.52369968998929
 21
335.49046084382002
 31
0.0
  0
LINE
  5
5DB
  8
0
  6
CONTINUOUS
 10
137.52369968998929
 20
335.49046084382002
 30
0.0
 11
136.5669911090765
 21
335.68076201254172
 31
0.0
  0
LINE
  5
5DC
  8
0
  6
CONTINUOUS
 10
135.7559327370229
 20
336.22269389085358
 30
0.0
 11
136.5669911090765
 21
335.68076201254172
 31
0.0
  0
LINE
  5
5DD
  8
0
  6
CONTINUOUS
 10
139.2914666429557
 20
336.22269389085358
 30
0.0
 11
138.48040827090199
 21
335.68076201254172
 31
0.0
  0
ENDBLK
  5
5DF
  8
0
  0
BLOCK
  8
0
  2
*U40
 70
     1
 10
0.0
 20
0.0
 30
0.0
  3
*U40
  1

  0
TEXT
  5
5E1
  8
0
 10
-45.424279090396467
 20
478.84602327061918
 30
0.0
 40
12.5
  1
Tilcor CF Slate Tile
  7
ARIAL
  0
ENDBLK
  5
5E3
  8
0
  0
BLOCK
  8
0
  2
*U41
 70
     1
 10
0.0
 20
0.0
 30
0.0
  3
*U41
  1

  0
SOLID
  5
5E5
  8
0
  6
CONTINUOUS
 10
20.888611446252369
 20
276.72068095894372
 30
0.0
 11
19.931902865339641
 21
276.5303797902219
 31
0.0
 12
21.845320027165091
 22
276.5303797902219
 32
0.0
 13
21.845320027165091
 23
276.5303797902219
 33
0.0
210
0.0
220
0.0
230
1.0
  0
SOLID
  5
5E6
  8
0
  6
CONTINUOUS
 10
19.931902865339641
 20
276.5303797902219
 30
0.0
 11
19.12084449328599
 21
275.98844791190999
 31
0.0
 12
22.656378399218742
 22
275.98844791190999
 32
0.0
 13
22.656378399218742
 23
275.98844791190999
 33
0.0
210
0.0
220
0.0
230
1.0
  0
SOLID
  5
5E7
  8
0
  6
CONTINUOUS
 10
-19.931902865339641
 20
276.5303797902219
 30
0.0
 11
-21.845320027165091
 21
276.5303797902219
 31
0.0
 12
-22.656378399218742
 22
275.98844791190999
 32
0.0
 13
-22.656378399218742
 23
275.98844791190999
 33
0.0
210
0.0
220
0.0
230
-1.0
  0
SOLID
  5
5E8
  8
0
  6
CONTINUOUS
 10
19.12084449328599
 20
275.98844791190999
 30
0.0
 11
18.57891261497414
 21
275.17738953985639
 31
0.0
 12
23.198310277530592
 22
275.17738953985639
 32
0.0
 13
23.198310277530592
 23
275.17738953985639
 33
0.0
210
0.0
220
0.0
230
1.0
  0
SOLID
  5
5E9
  8
0
  6
CONTINUOUS
 10
-19.12084449328599
 20
275.98844791190999
 30
0.0
 11
-22.656378399218742
 21
275.98844791190999
 31
0.0
 12
-23.198310277530592
 22
275.17738953985639
 32
0.0
 13
-23.198310277530592
 23
275.17738953985639
 33
0.0
210
0.0
220
0.0
230
-1.0
  0
SOLID
  5
5EA
  8
0
  6
CONTINUOUS
 10
18.57891261497414
 20
275.17738953985639
 30
0.0
 11
18.388611446252359
 21
274.22068095894372
 31
0.0
 12
23.388611446252369
 22
274.22068095894372
 32
0.0
 13
23.388611446252369
 23
274.22068095894372
 33
0.0
210
0.0
220
0.0
230
1.0
  0
SOLID
  5
5EB
  8
0
  6
CONTINUOUS
 10
-18.57891261497414
 20
275.17738953985639
 30
0.0
 11
-23.198310277530592
 21
275.17738953985639
 31
0.0
 12
-23.388611446252369
 22
274.22068095894372
 32
0.0
 13
-23.388611446252369
 23
274.22068095894372
 33
0.0
210
0.0
220
0.0
230
-1.0
  0
SOLID
  5
5EC
  8
0
  6
CONTINUOUS
 10
18.388611446252359
 20
274.22068095894372
 30
0.0
 11
18.578912614974151
 21
273.26397237803093
 31
0.0
 12
23.198310277530592
 22
273.26397237803093
 32
0.0
 13
23.198310277530592
 23
273.26397237803093
 33
0.0
  0
SOLID
  5
5ED
  8
0
  6
CONTINUOUS
 10
-18.388611446252359
 20
274.22068095894372
 30
0.0
 11
-23.388611446252369
 21
274.22068095894372
 31
0.0
 12
-23.198310277530592
 22
273.26397237803093
 32
0.0
 13
-23.198310277530592
 23
273.26397237803093
 33
0.0
210
0.0
220
0.0
230
-1.0
  0
SOLID
  5
5EE
  8
0
  6
CONTINUOUS
 10
18.578912614974151
 20
273.26397237803093
 30
0.0
 11
19.12084449328599
 21
272.45291400597728
 31
0.0
 12
22.656378399218742
 22
272.45291400597728
 32
0.0
 13
22.656378399218742
 23
272.45291400597728
 33
0.0
210
0.0
220
0.0
230
1.0
  0
SOLID
  5
5EF
  8
0
  6
CONTINUOUS
 10
-18.578912614974151
 20
273.26397237803093
 30
0.0
 11
-23.198310277530592
 21
273.26397237803093
 31
0.0
 12
-22.656378399218742
 22
272.45291400597728
 32
0.0
 13
-22.656378399218742
 23
272.45291400597728
 33
0.0
210
0.0
220
0.0
230
-1.0
  0
SOLID
  5
5F0
  8
0
  6
CONTINUOUS
 10
-19.931902865339641
 20
271.91098212766542
 30
0.0
 11
-21.845320027165091
 21
271.91098212766542
 31
0.0
 12
-20.888611446252369
 22
271.72068095894372
 32
0.0
 13
-20.888611446252369
 23
271.72068095894372
 33
0.0
210
0.0
220
0.0
230
-1.0
  0
SOLID
  5
5F1
  8
0
  6
CONTINUOUS
 10
19.12084449328599
 20
272.45291400597728
 30
0.0
 11
19.931902865339641
 21
271.91098212766542
 31
0.0
 12
21.845320027165091
 22
271.91098212766542
 32
0.0
 13
21.845320027165091
 23
271.91098212766542
 33
0.0
  0
SOLID
  5
5F2
  8
0
  6
CONTINUOUS
 10
-19.12084449328599
 20
272.45291400597728
 30
0.0
 11
-22.656378399218742
 21
272.45291400597728
 31
0.0
 12
-21.845320027165091
 22
271.91098212766542
 32
0.0
 13
-21.845320027165091
 23
271.91098212766542
 33
0.0
210
0.0
220
0.0
230
-1.0
  0
LINE
  5
5F3
  8
0
  6
CONTINUOUS
 10
20.888611446252369
 20
276.72068095894372
 30
0.0
 11
19.931902865339641
 21
276.5303797902219
 31
0.0
  0
LINE
  5
5F4
  8
0
  6
CONTINUOUS
 10
21.845320027165091
 20
276.5303797902219
 30
0.0
 11
20.888611446252369
 21
276.72068095894372
 31
0.0
  0
LINE
  5
5F5
  8
0
  6
CONTINUOUS
 10
19.931902865339641
 20
276.5303797902219
 30
0.0
 11
19.12084449328599
 21
275.98844791190999
 31
0.0
  0
LINE
  5
5F6
  8
0
  6
CONTINUOUS
 10
21.845320027165091
 20
276.5303797902219
 30
0.0
 11
22.656378399218742
 21
275.98844791190999
 31
0.0
  0
LINE
  5
5F7
  8
0
  6
CONTINUOUS
 10
19.12084449328599
 20
275.98844791190999
 30
0.0
 11
18.57891261497414
 21
275.17738953985639
 31
0.0
  0
LINE
  5
5F8
  8
0
  6
CONTINUOUS
 10
22.656378399218742
 20
275.98844791190999
 30
0.0
 11
23.198310277530592
 21
275.17738953985639
 31
0.0
  0
LINE
  5
5F9
  8
0
  6
CONTINUOUS
 10
18.57891261497414
 20
275.17738953985639
 30
0.0
 11
18.388611446252359
 21
274.22068095894372
 31
0.0
  0
LINE
  5
5FA
  8
0
  6
CONTINUOUS
 10
23.198310277530592
 20
275.17738953985639
 30
0.0
 11
23.388611446252369
 21
274.22068095894372
 31
0.0
  0
LINE
  5
5FB
  8
0
  6
CONTINUOUS
 10
18.388611446252359
 20
274.22068095894372
 30
0.0
 11
18.578912614974151
 21
273.26397237803093
 31
0.0
  0
LINE
  5
5FC
  8
0
  6
CONTINUOUS
 10
23.388611446252369
 20
274.22068095894372
 30
0.0
 11
23.198310277530592
 21
273.26397237803093
 31
0.0
  0
LINE
  5
5FD
  8
0
  6
CONTINUOUS
 10
18.578912614974151
 20
273.26397237803093
 30
0.0
 11
19.12084449328599
 21
272.45291400597728
 31
0.0
  0
LINE
  5
5FE
  8
0
  6
CONTINUOUS
 10
23.198310277530592
 20
273.26397237803093
 30
0.0
 11
22.656378399218742
 21
272.45291400597728
 31
0.0
  0
LINE
  5
5FF
  8
0
  6
CONTINUOUS
 10
21.845320027165091
 20
271.91098212766542
 30
0.0
 11
20.888611446252369
 21
271.72068095894372
 31
0.0
  0
LINE
  5
600
  8
0
  6
CONTINUOUS
 10
20.888611446252369
 20
271.72068095894372
 30
0.0
 11
19.931902865339641
 21
271.91098212766542
 31
0.0
  0
LINE
  5
601
  8
0
  6
CONTINUOUS
 10
19.12084449328599
 20
272.45291400597728
 30
0.0
 11
19.931902865339641
 21
271.91098212766542
 31
0.0
  0
LINE
  5
602
  8
0
  6
CONTINUOUS
 10
22.656378399218742
 20
272.45291400597728
 30
0.0
 11
21.845320027165091
 21
271.91098212766542
 31
0.0
  0
ENDBLK
  5
604
  8
0
  0
BLOCK
  8
0
  2
*U42
 70
     1
 10
0.0
 20
0.0
 30
0.0
  3
*U42
  1

  0
TEXT
  5
606
  8
0
 10
-723.03995198447478
 20
472.3586396393722
 30
0.0
 40
12.5
  1
25x150mm Tile batten on
  7
ARIAL
  0
TEXT
  5
607
  8
0
 10
-723.2531170595089
 20
452.73826656327662
 30
0.0
 40
12.5
  1
900mm truss spacing's
  7
ARIAL
  0
ENDBLK
  5
609
  8
0
  0
BLOCK
  8
0
  2
*U43
 70
     1
 10
0.0
 20
0.0
 30
0.0
  3
*U43
  1

  0
SOLID
  5
60B
  8
0
  6
CONTINUOUS
 10
-309.3581803801199
 20
157.644744235454
 30
0.0
 11
-310.31488896103258
 21
157.45444306673221
 31
0.0
 12
-308.40147179920717
 22
157.45444306673221
 32
0.0
 13
-308.40147179920717
 23
157.45444306673221
 33
0.0
210
0.0
220
0.0
230
1.0
  0
SOLID
  5
60C
  8
0
  6
CONTINUOUS
 10
-310.31488896103258
 20
157.45444306673221
 30
0.0
 11
-311.12594733308629
 21
156.9125111884203
 31
0.0
 12
-307.59041342715352
 22
156.9125111884203
 32
0.0
 13
-307.59041342715352
 23
156.9125111884203
 33
0.0
210
0.0
220
0.0
230
1.0
  0
SOLID
  5
60D
  8
0
  6
CONTINUOUS
 10
310.31488896103258
 20
157.45444306673221
 30
0.0
 11
308.40147179920717
 21
157.45444306673221
 31
0.0
 12
307.59041342715352
 22
156.9125111884203
 32
0.0
 13
307.59041342715352
 23
156.9125111884203
 33
0.0
210
0.0
220
0.0
230
-1.0
  0
SOLID
  5
60E
  8
0
  6
CONTINUOUS
 10
-311.12594733308629
 20
156.9125111884203
 30
0.0
 11
-311.66787921139809
 21
156.1014528163667
 31
0.0
 12
-307.04848154884172
 22
156.1014528163667
 32
0.0
 13
-307.04848154884172
 23
156.1014528163667
 33
0.0
210
0.0
220
0.0
230
1.0
  0
SOLID
  5
60F
  8
0
  6
CONTINUOUS
 10
311.12594733308629
 20
156.9125111884203
 30
0.0
 11
307.59041342715352
 21
156.9125111884203
 31
0.0
 12
307.04848154884172
 22
156.1014528163667
 32
0.0
 13
307.04848154884172
 23
156.1014528163667
 33
0.0
210
0.0
220
0.0
230
-1.0
  0
SOLID
  5
610
  8
0
  6
CONTINUOUS
 10
-311.66787921139809
 20
156.1014528163667
 30
0.0
 11
-311.8581803801199
 21
155.14474423545391
 31
0.0
 12
-306.8581803801199
 22
155.14474423545391
 32
0.0
 13
-306.8581803801199
 23
155.14474423545391
 33
0.0
210
0.0
220
0.0
230
1.0
  0
SOLID
  5
611
  8
0
  6
CONTINUOUS
 10
311.66787921139809
 20
156.1014528163667
 30
0.0
 11
307.04848154884172
 21
156.1014528163667
 31
0.0
 12
306.8581803801199
 22
155.14474423545391
 32
0.0
 13
306.8581803801199
 23
155.14474423545391
 33
0.0
210
0.0
220
0.0
230
-1.0
  0
SOLID
  5
612
  8
0
  6
CONTINUOUS
 10
-311.8581803801199
 20
155.14474423545391
 30
0.0
 11
-311.66787921139809
 21
154.18803565454121
 31
0.0
 12
-307.04848154884172
 22
154.18803565454121
 32
0.0
 13
-307.04848154884172
 23
154.18803565454121
 33
0.0
210
0.0
220
0.0
230
1.0
  0
SOLID
  5
613
  8
0
  6
CONTINUOUS
 10
311.8581803801199
 20
155.14474423545391
 30
0.0
 11
306.8581803801199
 21
155.14474423545391
 31
0.0
 12
307.04848154884172
 22
154.18803565454121
 32
0.0
 13
307.04848154884172
 23
154.18803565454121
 33
0.0
210
0.0
220
0.0
230
-1.0
  0
SOLID
  5
614
  8
0
  6
CONTINUOUS
 10
-311.66787921139809
 20
154.18803565454121
 30
0.0
 11
-311.12594733308629
 21
153.37697728248759
 31
0.0
 12
-307.59041342715352
 22
153.37697728248759
 32
0.0
 13
-307.59041342715352
 23
153.37697728248759
 33
0.0
210
0.0
220
0.0
230
1.0
  0
SOLID
  5
615
  8
0
  6
CONTINUOUS
 10
311.66787921139809
 20
154.18803565454121
 30
0.0
 11
307.04848154884172
 21
154.18803565454121
 31
0.0
 12
307.59041342715352
 22
153.37697728248759
 32
0.0
 13
307.59041342715352
 23
153.37697728248759
 33
0.0
210
0.0
220
0.0
230
-1.0
  0
SOLID
  5
616
  8
0
  6
CONTINUOUS
 10
310.31488896103258
 20
152.8350454041757
 30
0.0
 11
308.40147179920717
 21
152.8350454041757
 31
0.0
 12
309.3581803801199
 22
152.64474423545391
 32
0.0
 13
309.3581803801199
 23
152.64474423545391
 33
0.0
210
0.0
220
0.0
230
-1.0
  0
SOLID
  5
617
  8
0
  6
CONTINUOUS
 10
-311.12594733308629
 20
153.37697728248759
 30
0.0
 11
-310.31488896103258
 21
152.8350454041757
 31
0.0
 12
-308.40147179920717
 22
152.8350454041757
 32
0.0
 13
-308.40147179920717
 23
152.8350454041757
 33
0.0
210
0.0
220
0.0
230
1.0
  0
SOLID
  5
618
  8
0
  6
CONTINUOUS
 10
311.12594733308629
 20
153.37697728248759
 30
0.0
 11
307.59041342715352
 21
153.37697728248759
 31
0.0
 12
308.40147179920717
 22
152.8350454041757
 32
0.0
 13
308.40147179920717
 23
152.8350454041757
 33
0.0
210
0.0
220
0.0
230
-1.0
  0
LINE
  5
619
  8
0
  6
CONTINUOUS
 10
-309.3581803801199
 20
157.644744235454
 30
0.0
 11
-310.31488896103258
 21
157.45444306673221
 31
0.0
  0
LINE
  5
61A
  8
0
  6
CONTINUOUS
 10
-308.40147179920717
 20
157.45444306673221
 30
0.0
 11
-309.3581803801199
 21
157.644744235454
 31
0.0
  0
LINE
  5
61B
  8
0
  6
CONTINUOUS
 10
-310.31488896103258
 20
157.45444306673221
 30
0.0
 11
-311.12594733308629
 21
156.9125111884203
 31
0.0
  0
LINE
  5
61C
  8
0
  6
CONTINUOUS
 10
-308.40147179920717
 20
157.45444306673221
 30
0.0
 11
-307.59041342715352
 21
156.9125111884203
 31
0.0
  0
LINE
  5
61D
  8
0
  6
CONTINUOUS
 10
-311.12594733308629
 20
156.9125111884203
 30
0.0
 11
-311.66787921139809
 21
156.1014528163667
 31
0.0
  0
LINE
  5
61E
  8
0
  6
CONTINUOUS
 10
-307.59041342715352
 20
156.9125111884203
 30
0.0
 11
-307.04848154884172
 21
156.1014528163667
 31
0.0
  0
LINE
  5
61F
  8
0
  6
CONTINUOUS
 10
-311.66787921139809
 20
156.1014528163667
 30
0.0
 11
-311.8581803801199
 21
155.14474423545391
 31
0.0
  0
LINE
  5
620
  8
0
  6
CONTINUOUS
 10
-307.04848154884172
 20
156.1014528163667
 30
0.0
 11
-306.8581803801199
 21
155.14474423545391
 31
0.0
  0
LINE
  5
621
  8
0
  6
CONTINUOUS
 10
-311.8581803801199
 20
155.14474423545391
 30
0.0
 11
-311.66787921139809
 21
154.18803565454121
 31
0.0
  0
LINE
  5
622
  8
0
  6
CONTINUOUS
 10
-306.8581803801199
 20
155.14474423545391
 30
0.0
 11
-307.04848154884172
 21
154.18803565454121
 31
0.0
  0
LINE
  5
623
  8
0
  6
CONTINUOUS
 10
-311.66787921139809
 20
154.18803565454121
 30
0.0
 11
-311.12594733308629
 21
153.37697728248759
 31
0.0
  0
LINE
  5
624
  8
0
  6
CONTINUOUS
 10
-307.04848154884172
 20
154.18803565454121
 30
0.0
 11
-307.59041342715352
 21
153.37697728248759
 31
0.0
  0
LINE
  5
625
  8
0
  6
CONTINUOUS
 10
-308.40147179920717
 20
152.8350454041757
 30
0.0
 11
-309.3581803801199
 21
152.64474423545391
 31
0.0
  0
LINE
  5
626
  8
0
  6
CONTINUOUS
 10
-309.3581803801199
 20
152.64474423545391
 30
0.0
 11
-310.31488896103258
 21
152.8350454041757
 31
0.0
  0
LINE
  5
627
  8
0
  6
CONTINUOUS
 10
-311.12594733308629
 20
153.37697728248759
 30
0.0
 11
-310.31488896103258
 21
152.8350454041757
 31
0.0
  0
LINE
  5
628
  8
0
  6
CONTINUOUS
 10
-307.59041342715352
 20
153.37697728248759
 30
0.0
 11
-308.40147179920717
 21
152.8350454041757
 31
0.0
  0
ENDBLK
  5
62A
  8
0
  0
BLOCK
  8
0
  2
*U44
 70
     1
 10
0.0
 20
0.0
 30
0.0
  3
*U44
  1

  0
TEXT
  5
62C
  8
0
 10
-723.03995198447478
 20
472.3586396393722
 30
0.0
 40
12.5
  1
25x150mm Tile batten on
  7
ARIAL
  0
TEXT
  5
62D
  8
0
 10
-723.2531170595089
 20
452.73826656327662
 30
0.0
 40
12.5
  1
900mm truss spacing's
  7
ARIAL
  0
ENDBLK
  5
62F
  8
0
  0
BLOCK
  8
0
  2
*U45
 70
     1
 10
0.0
 20
0.0
 30
0.0
  3
*U45
  1

  0
SOLID
  5
631
  8
0
  6
CONTINUOUS
 10
59.659515937089857
 20
249.7956920235406
 30
0.0
 11
58.702807356177139
 21
249.60539085481881
 31
0.0
 12
60.616224518002589
 22
249.60539085481881
 32
0.0
 13
60.616224518002589
 23
249.60539085481881
 33
0.0
210
0.0
220
0.0
230
1.0
  0
SOLID
  5
632
  8
0
  6
CONTINUOUS
 10
58.702807356177139
 20
249.60539085481881
 30
0.0
 11
57.891748984123502
 21
249.06345897650701
 31
0.0
 12
61.427282890056219
 22
249.06345897650701
 32
0.0
 13
61.427282890056219
 23
249.06345897650701
 33
0.0
210
0.0
220
0.0
230
1.0
  0
SOLID
  5
633
  8
0
  6
CONTINUOUS
 10
-58.702807356177139
 20
249.60539085481881
 30
0.0
 11
-60.616224518002589
 21
249.60539085481881
 31
0.0
 12
-61.427282890056219
 22
249.06345897650701
 32
0.0
 13
-61.427282890056219
 23
249.06345897650701
 33
0.0
210
0.0
220
0.0
230
-1.0
  0
SOLID
  5
634
  8
0
  6
CONTINUOUS
 10
57.891748984123502
 20
249.06345897650701
 30
0.0
 11
57.349817105811653
 21
248.2524006044533
 31
0.0
 12
61.969214768368069
 22
248.2524006044533
 32
0.0
 13
61.969214768368069
 23
248.2524006044533
 33
0.0
210
0.0
220
0.0
230
1.0
  0
SOLID
  5
635
  8
0
  6
CONTINUOUS
 10
-57.891748984123502
 20
249.06345897650701
 30
0.0
 11
-61.427282890056219
 21
249.06345897650701
 31
0.0
 12
-61.969214768368069
 22
248.2524006044533
 32
0.0
 13
-61.969214768368069
 23
248.2524006044533
 33
0.0
210
0.0
220
0.0
230
-1.0
  0
SOLID
  5
636
  8
0
  6
CONTINUOUS
 10
57.349817105811653
 20
248.2524006044533
 30
0.0
 11
57.159515937089871
 21
247.2956920235406
 31
0.0
 12
62.159515937089857
 22
247.2956920235406
 32
0.0
 13
62.159515937089857
 23
247.2956920235406
 33
0.0
210
0.0
220
0.0
230
1.0
  0
SOLID
  5
637
  8
0
  6
CONTINUOUS
 10
-57.349817105811653
 20
248.2524006044533
 30
0.0
 11
-61.969214768368069
 21
248.2524006044533
 31
0.0
 12
-62.159515937089857
 22
247.2956920235406
 32
0.0
 13
-62.159515937089857
 23
247.2956920235406
 33
0.0
210
0.0
220
0.0
230
-1.0
  0
SOLID
  5
638
  8
0
  6
CONTINUOUS
 10
57.159515937089871
 20
247.2956920235406
 30
0.0
 11
57.349817105811653
 21
246.33898344262789
 31
0.0
 12
61.969214768368069
 22
246.33898344262789
 32
0.0
 13
61.969214768368069
 23
246.33898344262789
 33
0.0
  0
SOLID
  5
639
  8
0
  6
CONTINUOUS
 10
-57.159515937089871
 20
247.2956920235406
 30
0.0
 11
-62.159515937089857
 21
247.2956920235406
 31
0.0
 12
-61.969214768368069
 22
246.33898344262789
 32
0.0
 13
-61.969214768368069
 23
246.33898344262789
 33
0.0
210
0.0
220
0.0
230
-1.0
  0
SOLID
  5
63A
  8
0
  6
CONTINUOUS
 10
57.349817105811653
 20
246.33898344262789
 30
0.0
 11
57.891748984123502
 21
245.52792507057421
 31
0.0
 12
61.427282890056219
 22
245.52792507057421
 32
0.0
 13
61.427282890056219
 23
245.52792507057421
 33
0.0
210
0.0
220
0.0
230
1.0
  0
SOLID
  5
63B
  8
0
  6
CONTINUOUS
 10
-57.349817105811653
 20
246.33898344262789
 30
0.0
 11
-61.969214768368069
 21
246.33898344262789
 31
0.0
 12
-61.427282890056219
 22
245.52792507057421
 32
0.0
 13
-61.427282890056219
 23
245.52792507057421
 33
0.0
210
0.0
220
0.0
230
-1.0
  0
SOLID
  5
63C
  8
0
  6
CONTINUOUS
 10
-58.702807356177154
 20
244.98599319226241
 30
0.0
 11
-60.616224518002589
 21
244.98599319226241
 31
0.0
 12
-59.659515937089857
 22
244.7956920235406
 32
0.0
 13
-59.659515937089857
 23
244.7956920235406
 33
0.0
210
0.0
220
0.0
230
-1.0
  0
SOLID
  5
63D
  8
0
  6
CONTINUOUS
 10
57.891748984123502
 20
245.52792507057421
 30
0.0
 11
58.702807356177154
 21
244.98599319226241
 31
0.0
 12
60.616224518002589
 22
244.98599319226241
 32
0.0
 13
60.616224518002589
 23
244.98599319226241
 33
0.0
210
0.0
220
0.0
230
1.0
  0
SOLID
  5
63E
  8
0
  6
CONTINUOUS
 10
-57.891748984123502
 20
245.52792507057421
 30
0.0
 11
-61.427282890056219
 21
245.52792507057421
 31
0.0
 12
-60.616224518002589
 22
244.98599319226241
 32
0.0
 13
-60.616224518002589
 23
244.98599319226241
 33
0.0
210
0.0
220
0.0
230
-1.0
  0
LINE
  5
63F
  8
0
  6
CONTINUOUS
 10
59.659515937089857
 20
249.7956920235406
 30
0.0
 11
58.702807356177139
 21
249.60539085481881
 31
0.0
  0
LINE
  5
640
  8
0
  6
CONTINUOUS
 10
60.616224518002589
 20
249.60539085481881
 30
0.0
 11
59.659515937089857
 21
249.7956920235406
 31
0.0
  0
LINE
  5
641
  8
0
  6
CONTINUOUS
 10
58.702807356177139
 20
249.60539085481881
 30
0.0
 11
57.891748984123502
 21
249.06345897650701
 31
0.0
  0
LINE
  5
642
  8
0
  6
CONTINUOUS
 10
60.616224518002589
 20
249.60539085481881
 30
0.0
 11
61.427282890056219
 21
249.06345897650701
 31
0.0
  0
LINE
  5
643
  8
0
  6
CONTINUOUS
 10
57.891748984123502
 20
249.06345897650701
 30
0.0
 11
57.349817105811653
 21
248.2524006044533
 31
0.0
  0
LINE
  5
644
  8
0
  6
CONTINUOUS
 10
61.427282890056219
 20
249.06345897650701
 30
0.0
 11
61.969214768368069
 21
248.2524006044533
 31
0.0
  0
LINE
  5
645
  8
0
  6
CONTINUOUS
 10
57.349817105811653
 20
248.2524006044533
 30
0.0
 11
57.159515937089871
 21
247.2956920235406
 31
0.0
  0
LINE
  5
646
  8
0
  6
CONTINUOUS
 10
61.969214768368069
 20
248.2524006044533
 30
0.0
 11
62.159515937089857
 21
247.2956920235406
 31
0.0
  0
LINE
  5
647
  8
0
  6
CONTINUOUS
 10
57.159515937089871
 20
247.2956920235406
 30
0.0
 11
57.349817105811653
 21
246.33898344262789
 31
0.0
  0
LINE
  5
648
  8
0
  6
CONTINUOUS
 10
62.159515937089857
 20
247.2956920235406
 30
0.0
 11
61.969214768368069
 21
246.33898344262789
 31
0.0
  0
LINE
  5
649
  8
0
  6
CONTINUOUS
 10
57.349817105811653
 20
246.33898344262789
 30
0.0
 11
57.891748984123502
 21
245.52792507057421
 31
0.0
  0
LINE
  5
64A
  8
0
  6
CONTINUOUS
 10
61.969214768368069
 20
246.33898344262789
 30
0.0
 11
61.427282890056219
 21
245.52792507057421
 31
0.0
  0
LINE
  5
64B
  8
0
  6
CONTINUOUS
 10
60.616224518002589
 20
244.98599319226241
 30
0.0
 11
59.659515937089857
 21
244.7956920235406
 31
0.0
  0
LINE
  5
64C
  8
0
  6
CONTINUOUS
 10
59.659515937089857
 20
244.7956920235406
 30
0.0
 11
58.702807356177154
 21
244.98599319226241
 31
0.0
  0
LINE
  5
64D
  8
0
  6
CONTINUOUS
 10
57.891748984123502
 20
245.52792507057421
 30
0.0
 11
58.702807356177154
 21
244.98599319226241
 31
0.0
  0
LINE
  5
64E
  8
0
  6
CONTINUOUS
 10
61.427282890056219
 20
245.52792507057421
 30
0.0
 11
60.616224518002589
 21
244.98599319226241
 31
0.0
  0
ENDBLK
  5
650
  8
0
  0
BLOCK
  8
0
  2
*U46
 70
     1
 10
0.0
 20
0.0
 30
0.0
  3
*U46
  1

  0
TEXT
  5
652
  8
0
 10
-47.673871504946852
 20
438.738529807264
 30
0.0
 40
12.5
  1
Rafter
  7
ARIAL
  0
ENDBLK
  5
654
  8
0
  0
BLOCK
  8
0
  2
*U47
 70
     1
 10
0.0
 20
0.0
 30
0.0
  3
*U47
  1

  0
SOLID
  5
656
  8
0
  6
CONTINUOUS
 10
-443.29944995984812
 20
126.4527903510937
 30
0.0
 11
-444.25615854076091
 21
126.26248918237189
 31
0.0
 12
-442.34274137893539
 22
126.26248918237189
 32
0.0
 13
-442.34274137893539
 23
126.26248918237189
 33
0.0
210
0.0
220
0.0
230
1.0
  0
SOLID
  5
657
  8
0
  6
CONTINUOUS
 10
-444.25615854076091
 20
126.26248918237189
 30
0.0
 11
-445.06721691281439
 21
125.72055730406009
 31
0.0
 12
-441.53168300688168
 22
125.72055730406009
 32
0.0
 13
-441.53168300688168
 23
125.72055730406009
 33
0.0
210
0.0
220
0.0
230
1.0
  0
SOLID
  5
658
  8
0
  6
CONTINUOUS
 10
444.25615854076091
 20
126.26248918237189
 30
0.0
 11
442.34274137893539
 21
126.26248918237189
 31
0.0
 12
441.53168300688168
 22
125.72055730406009
 32
0.0
 13
441.53168300688168
 23
125.72055730406009
 33
0.0
210
0.0
220
0.0
230
-1.0
  0
SOLID
  5
659
  8
0
  6
CONTINUOUS
 10
-445.06721691281439
 20
125.72055730406009
 30
0.0
 11
-445.6091487911263
 21
124.9094989320065
 31
0.0
 12
-440.98975112856988
 22
124.9094989320065
 32
0.0
 13
-440.98975112856988
 23
124.9094989320065
 33
0.0
210
0.0
220
0.0
230
1.0
  0
SOLID
  5
65A
  8
0
  6
CONTINUOUS
 10
445.06721691281439
 20
125.72055730406009
 30
0.0
 11
441.53168300688168
 21
125.72055730406009
 31
0.0
 12
440.98975112856988
 22
124.9094989320065
 32
0.0
 13
440.98975112856988
 23
124.9094989320065
 33
0.0
210
0.0
220
0.0
230
-1.0
  0
SOLID
  5
65B
  8
0
  6
CONTINUOUS
 10
-445.6091487911263
 20
124.9094989320065
 30
0.0
 11
-445.79944995984812
 21
123.9527903510938
 31
0.0
 12
-440.79944995984818
 22
123.9527903510938
 32
0.0
 13
-440.79944995984818
 23
123.9527903510938
 33
0.0
210
0.0
220
0.0
230
1.0
  0
SOLID
  5
65C
  8
0
  6
CONTINUOUS
 10
445.6091487911263
 20
124.9094989320065
 30
0.0
 11
440.98975112856988
 21
124.9094989320065
 31
0.0
 12
440.79944995984818
 22
123.9527903510938
 32
0.0
 13
440.79944995984818
 23
123.9527903510938
 33
0.0
210
0.0
220
0.0
230
-1.0
  0
SOLID
  5
65D
  8
0
  6
CONTINUOUS
 10
-445.79944995984812
 20
123.9527903510938
 30
0.0
 11
-445.6091487911263
 21
122.99608177018111
 31
0.0
 12
-440.98975112856988
 22
122.99608177018111
 32
0.0
 13
-440.98975112856988
 23
122.99608177018111
 33
0.0
210
0.0
220
0.0
230
1.0
  0
SOLID
  5
65E
  8
0
  6
CONTINUOUS
 10
445.79944995984812
 20
123.9527903510938
 30
0.0
 11
440.79944995984818
 21
123.9527903510938
 31
0.0
 12
440.98975112856988
 22
122.99608177018111
 32
0.0
 13
440.98975112856988
 23
122.99608177018111
 33
0.0
210
0.0
220
0.0
230
-1.0
  0
SOLID
  5
65F
  8
0
  6
CONTINUOUS
 10
-445.6091487911263
 20
122.99608177018111
 30
0.0
 11
-445.06721691281439
 21
122.1850233981274
 31
0.0
 12
-441.53168300688168
 22
122.1850233981274
 32
0.0
 13
-441.53168300688168
 23
122.1850233981274
 33
0.0
210
0.0
220
0.0
230
1.0
  0
SOLID
  5
660
  8
0
  6
CONTINUOUS
 10
445.6091487911263
 20
122.99608177018111
 30
0.0
 11
440.98975112856988
 21
122.99608177018111
 31
0.0
 12
441.53168300688168
 22
122.1850233981274
 32
0.0
 13
441.53168300688168
 23
122.1850233981274
 33
0.0
210
0.0
220
0.0
230
-1.0
  0
SOLID
  5
661
  8
0
  6
CONTINUOUS
 10
444.25615854076091
 20
121.6430915198156
 30
0.0
 11
442.34274137893539
 21
121.6430915198156
 31
0.0
 12
443.29944995984812
 22
121.4527903510938
 32
0.0
 13
443.29944995984812
 23
121.4527903510938
 33
0.0
210
0.0
220
0.0
230
-1.0
  0
SOLID
  5
662
  8
0
  6
CONTINUOUS
 10
-445.06721691281439
 20
122.1850233981274
 30
0.0
 11
-444.25615854076091
 21
121.6430915198156
 31
0.0
 12
-442.34274137893539
 22
121.6430915198156
 32
0.0
 13
-442.34274137893539
 23
121.6430915198156
 33
0.0
  0
SOLID
  5
663
  8
0
  6
CONTINUOUS
 10
445.06721691281439
 20
122.1850233981274
 30
0.0
 11
441.53168300688168
 21
122.1850233981274
 31
0.0
 12
442.34274137893539
 22
121.6430915198156
 32
0.0
 13
442.34274137893539
 23
121.6430915198156
 33
0.0
210
0.0
220
0.0
230
-1.0
  0
LINE
  5
664
  8
0
  6
CONTINUOUS
 10
-443.29944995984812
 20
126.4527903510937
 30
0.0
 11
-444.25615854076091
 21
126.26248918237189
 31
0.0
  0
LINE
  5
665
  8
0
  6
CONTINUOUS
 10
-442.34274137893539
 20
126.26248918237189
 30
0.0
 11
-443.29944995984812
 21
126.4527903510937
 31
0.0
  0
LINE
  5
666
  8
0
  6
CONTINUOUS
 10
-444.25615854076091
 20
126.26248918237189
 30
0.0
 11
-445.06721691281439
 21
125.72055730406009
 31
0.0
  0
LINE
  5
667
  8
0
  6
CONTINUOUS
 10
-442.34274137893539
 20
126.26248918237189
 30
0.0
 11
-441.53168300688168
 21
125.72055730406009
 31
0.0
  0
LINE
  5
668
  8
0
  6
CONTINUOUS
 10
-445.06721691281439
 20
125.72055730406009
 30
0.0
 11
-445.6091487911263
 21
124.9094989320065
 31
0.0
  0
LINE
  5
669
  8
0
  6
CONTINUOUS
 10
-441.53168300688168
 20
125.72055730406009
 30
0.0
 11
-440.98975112856988
 21
124.9094989320065
 31
0.0
  0
LINE
  5
66A
  8
0
  6
CONTINUOUS
 10
-445.6091487911263
 20
124.9094989320065
 30
0.0
 11
-445.79944995984812
 21
123.9527903510938
 31
0.0
  0
LINE
  5
66B
  8
0
  6
CONTINUOUS
 10
-440.98975112856988
 20
124.9094989320065
 30
0.0
 11
-440.79944995984818
 21
123.9527903510938
 31
0.0
  0
LINE
  5
66C
  8
0
  6
CONTINUOUS
 10
-445.79944995984812
 20
123.9527903510938
 30
0.0
 11
-445.6091487911263
 21
122.99608177018111
 31
0.0
  0
LINE
  5
66D
  8
0
  6
CONTINUOUS
 10
-440.79944995984818
 20
123.9527903510938
 30
0.0
 11
-440.98975112856988
 21
122.99608177018111
 31
0.0
  0
LINE
  5
66E
  8
0
  6
CONTINUOUS
 10
-445.6091487911263
 20
122.99608177018111
 30
0.0
 11
-445.06721691281439
 21
122.1850233981274
 31
0.0
  0
LINE
  5
66F
  8
0
  6
CONTINUOUS
 10
-440.98975112856988
 20
122.99608177018111
 30
0.0
 11
-441.53168300688168
 21
122.1850233981274
 31
0.0
  0
LINE
  5
670
  8
0
  6
CONTINUOUS
 10
-442.34274137893539
 20
121.6430915198156
 30
0.0
 11
-443.29944995984812
 21
121.4527903510938
 31
0.0
  0
LINE
  5
671
  8
0
  6
CONTINUOUS
 10
-443.29944995984812
 20
121.4527903510938
 30
0.0
 11
-444.25615854076091
 21
121.6430915198156
 31
0.0
  0
LINE
  5
672
  8
0
  6
CONTINUOUS
 10
-445.06721691281439
 20
122.1850233981274
 30
0.0
 11
-444.25615854076091
 21
121.6430915198156
 31
0.0
  0
LINE
  5
673
  8
0
  6
CONTINUOUS
 10
-441.53168300688168
 20
122.1850233981274
 30
0.0
 11
-442.34274137893539
 21
121.6430915198156
 31
0.0
  0
ENDBLK
  5
675
  8
0
  0
BLOCK
  8
0
  2
*U48
 70
     1
 10
0.0
 20
0.0
 30
0.0
  3
*U48
  1

  0
TEXT
  5
677
  8
0
 10
-729.37566218852908
 20
150.34998473136179
 30
0.0
 40
12.5
  1
CF Slate Starter
  7
ARIAL
  0
ENDBLK
  5
679
  8
0
  0
BLOCK
  8
0
  2
*U49
 70
     1
 10
0.0
 20
0.0
 30
0.0
  3
*U49
  1

  0
SOLID
  5
685
  8
0
  6
CONTINUOUS
 10
-535.91130677723982
 20
129.2444533974018
 30
0.0
 11
-549.14149628925077
 21
129.19785332656559
 31
0.0
 12
-535.55734409753268
 22
129.19785332656559
 32
0.0
 13
-535.55734409753268
 23
129.19785332656559
 33
0.0
210
0.0
220
0.0
230
1.0
  0
SOLID
  5
686
  8
0
  6
CONTINUOUS
 10
-549.14149628925077
 20
129.19785332656559
 30
0.0
 11
-549.17753385466028
 21
129.18482359340771
 31
0.0
 12
-535.45837344831045
 22
129.18482359340771
 32
0.0
 13
-535.45837344831045
 23
129.18482359340771
 33
0.0
210
0.0
220
0.0
230
1.0
  0
SOLID
  5
687
  8
0
  6
CONTINUOUS
 10
549.14149628925077
 20
129.19785332656559
 30
0.0
 11
535.55734409753268
 21
129.19785332656559
 31
0.0
 12
535.45837344831045
 22
129.18482359340771
 32
0.0
 13
535.45837344831045
 23
129.18482359340771
 33
0.0
210
0.0
220
0.0
230
-1.0
  0
SOLID
  5
688
  8
0
  6
CONTINUOUS
 10
-549.17753385466028
 20
129.18482359340771
 30
0.0
 11
-549.52129083748991
 21
129.0605349044645
 31
0.0
 12
-535.15831400981426
 22
129.0605349044645
 32
0.0
 13
-535.15831400981426
 23
129.0605349044645
 33
0.0
210
0.0
220
0.0
230
1.0
  0
SOLID
  5
689
  8
0
  6
CONTINUOUS
 10
549.17753385466028
 20
129.18482359340771
 30
0.0
 11
535.45837344831045
 21
129.18482359340771
 31
0.0
 12
535.15831400981426
 22
129.0605349044645
 32
0.0
 13
535.15831400981426
 23
129.0605349044645
 33
0.0
210
0.0
220
0.0
230
-1.0
  0
SOLID
  5
68A
  8
0
  6
CONTINUOUS
 10
-549.52129083748991
 20
129.0605349044645
 30
0.0
 11
-549.59872610085245
 21
129.00999785402459
 31
0.0
 12
-535.03630677723982
 22
129.00999785402459
 32
0.0
 13
-535.03630677723982
 23
129.00999785402459
 33
0.0
210
0.0
220
0.0
230
1.0
  0
SOLID
  5
68B
  8
0
  6
CONTINUOUS
 10
549.52129083748991
 20
129.0605349044645
 30
0.0
 11
535.15831400981426
 21
129.0605349044645
 31
0.0
 12
535.03630677723982
 22
129.00999785402459
 32
0.0
 13
535.03630677723982
 23
129.00999785402459
 33
0.0
210
0.0
220
0.0
230
-1.0
  0
SOLID
  5
68C
  8
0
  6
CONTINUOUS
 10
-549.59872610085245
 20
129.00999785402459
 30
0.0
 11
-549.8594939586618
 21
128.839811329036
 31
0.0
 12
-534.81451537975909
 22
128.839811329036
 32
0.0
 13
-534.81451537975909
 23
128.839811329036
 33
0.0
210
0.0
220
0.0
230
1.0
  0
SOLID
  5
68D
  8
0
  6
CONTINUOUS
 10
549.59872610085245
 20
129.00999785402459
 30
0.0
 11
535.03630677723982
 21
129.00999785402459
 31
0.0
 12
534.81451537975909
 22
128.839811329036
 32
0.0
 13
534.81451537975909
 23
128.839811329036
 33
0.0
210
0.0
220
0.0
230
-1.0
  0
SOLID
  5
68E
  8
0
  6
CONTINUOUS
 10
-549.8594939586618
 20
128.839811329036
 30
0.0
 11
-549.96233088082897
 21
128.73189026447821
 31
0.0
 12
-534.67386991016326
 22
128.73189026447821
 32
0.0
 13
-534.67386991016326
 23
128.73189026447821
 33
0.0
  0
SOLID
  5
68F
  8
0
  6
CONTINUOUS
 10
549.8594939586618
 20
128.839811329036
 30
0.0
 11
534.81451537975909
 21
128.839811329036
 31
0.0
 12
534.67386991016326
 22
128.73189026447821
 32
0.0
 13
534.67386991016326
 23
128.73189026447821
 33
0.0
210
0.0
220
0.0
230
-1.0
  0
SOLID
  5
690
  8
0
  6
CONTINUOUS
 10
-549.96233088082897
 20
128.73189026447821
 30
0.0
 11
-550.13809389344885
 21
128.54743772513669
 31
0.0
 12
-534.53233449872539
 22
128.54743772513669
 32
0.0
 13
-534.53233449872539
 23
128.54743772513669
 33
0.0
210
0.0
220
0.0
230
1.0
  0
SOLID
  5
691
  8
0
  6
CONTINUOUS
 10
549.96233088082897
 20
128.73189026447821
 30
0.0
 11
534.67386991016326
 21
128.73189026447821
 31
0.0
 12
534.53233449872539
 22
128.54743772513669
 32
0.0
 13
534.53233449872539
 23
128.54743772513669
 33
0.0
210
0.0
220
0.0
230
-1.0
  0
SOLID
  5
692
  8
0
  6
CONTINUOUS
 10
-550.13809389344885
 20
128.54743772513669
 30
0.0
 11
-550.24237536863018
 21
128.3694533974018
 31
0.0
 12
-534.39576232061711
 22
128.3694533974018
 32
0.0
 13
-534.39576232061711
 23
128.3694533974018
 33
0.0
  0
SOLID
  5
693
  8
0
  6
CONTINUOUS
 10
550.13809389344885
 20
128.54743772513669
 30
0.0
 11
534.53233449872539
 21
128.54743772513669
 31
0.0
 12
534.39576232061711
 22
128.3694533974018
 32
0.0
 13
534.39576232061711
 23
128.3694533974018
 33
0.0
210
0.0
220
0.0
230
-1.0
  0
SOLID
  5
694
  8
0
  6
CONTINUOUS
 10
-550.24237536863018
 20
128.3694533974018
 30
0.0
 11
-550.31561318997956
 21
128.2444533974018
 31
0.0
 12
-534.34398562532044
 22
128.2444533974018
 32
0.0
 13
-534.34398562532044
 23
128.2444533974018
 33
0.0
210
0.0
220
0.0
230
1.0
  0
SOLID
  5
695
  8
0
  6
CONTINUOUS
 10
550.24237536863018
 20
128.3694533974018
 30
0.0
 11
534.39576232061711
 21
128.3694533974018
 31
0.0
 12
534.34398562532044
 22
128.2444533974018
 32
0.0
 13
534.34398562532044
 23
128.2444533974018
 33
0.0
210
0.0
220
0.0
230
-1.0
  0
SOLID
  5
696
  8
0
  6
CONTINUOUS
 10
-548.74033711720244
 20
128.2444533974018
 30
0.0
 11
-538.56288521628255
 21
128.22448193847089
 31
0.0
 12
-534.33571317617088
 22
128.22448193847089
 32
0.0
 13
-534.33571317617088
 23
128.22448193847089
 33
0.0
210
0.0
220
0.0
230
1.0
  0
SOLID
  5
697
  8
0
  6
CONTINUOUS
 10
548.74033711720244
 20
128.2444533974018
 30
0.0
 11
534.34398562532044
 21
128.2444533974018
 31
0.0
 12
534.33571317617088
 22
128.22448193847089
 32
0.0
 13
534.33571317617088
 23
128.22448193847089
 33
0.0
210
0.0
220
0.0
230
-1.0
  0
SOLID
  5
698
  8
0
  6
CONTINUOUS
 10
-550.31561318997956
 20
128.2444533974018
 30
0.0
 11
-550.3273145191099
 21
128.22448193847089
 31
0.0
 12
-548.91226247665202
 22
128.22448193847089
 32
0.0
 13
-548.91226247665202
 23
128.22448193847089
 33
0.0
210
0.0
220
0.0
230
1.0
  0
SOLID
  5
699
  8
0
  6
CONTINUOUS
 10
550.31561318997956
 20
128.2444533974018
 30
0.0
 11
548.74033711720244
 21
128.2444533974018
 31
0.0
 12
548.91226247665202
 22
128.22448193847089
 32
0.0
 13
548.91226247665202
 23
128.22448193847089
 33
0.0
210
0.0
220
0.0
230
-1.0
  0
SOLID
  5
69A
  8
0
  6
CONTINUOUS
 10
-538.56288521628255
 20
128.22448193847089
 30
0.0
 11
-535.71719249341299
 21
128.21889776711859
 31
0.0
 12
-534.33340013666214
 22
128.21889776711859
 32
0.0
 13
-534.33340013666214
 23
128.21889776711859
 33
0.0
210
0.0
220
0.0
230
1.0
  0
SOLID
  5
69B
  8
0
  6
CONTINUOUS
 10
538.56288521628255
 20
128.22448193847089
 30
0.0
 11
534.33571317617088
 21
128.22448193847089
 31
0.0
 12
534.33340013666214
 22
128.21889776711859
 32
0.0
 13
534.33340013666214
 23
128.21889776711859
 33
0.0
210
0.0
220
0.0
230
-1.0
  0
SOLID
  5
69C
  8
0
  6
CONTINUOUS
 10
-550.3273145191099
 20
128.22448193847089
 30
0.0
 11
-550.34225318277049
 21
128.19898509922601
 31
0.0
 12
-548.96339243146588
 22
128.19898509922601
 32
0.0
 13
-548.96339243146588
 23
128.19898509922601
 33
0.0
210
0.0
220
0.0
230
1.0
  0
SOLID
  5
69D
  8
0
  6
CONTINUOUS
 10
550.3273145191099
 20
128.22448193847089
 30
0.0
 11
548.91226247665202
 21
128.22448193847089
 31
0.0
 12
548.96339243146588
 22
128.19898509922601
 32
0.0
 13
548.96339243146588
 23
128.19898509922601
 33
0.0
210
0.0
220
0.0
230
-1.0
  0
SOLID
  5
69E
  8
0
  6
CONTINUOUS
 10
-550.34225318277049
 20
128.19898509922601
 30
0.0
 11
-550.37621246009144
 21
128.07103536810101
 31
0.0
 12
-549.21997576354283
 22
128.07103536810101
 32
0.0
 13
-549.21997576354283
 23
128.07103536810101
 33
0.0
210
0.0
220
0.0
230
1.0
  0
SOLID
  5
69F
  8
0
  6
CONTINUOUS
 10
550.34225318277049
 20
128.19898509922601
 30
0.0
 11
548.96339243146588
 21
128.19898509922601
 31
0.0
 12
549.21997576354283
 22
128.07103536810101
 32
0.0
 13
549.21997576354283
 23
128.07103536810101
 33
0.0
210
0.0
220
0.0
230
-1.0
  0
SOLID
  5
6A0
  8
0
  6
CONTINUOUS
 10
-535.71719249341299
 20
128.21889776711859
 30
0.0
 11
-535.38097669134982
 21
128.0247834832918
 31
0.0
 12
-534.25299536765078
 22
128.0247834832918
 32
0.0
 13
-534.25299536765078
 23
128.0247834832918
 33
0.0
210
0.0
220
0.0
230
1.0
  0
SOLID
  5
6A1
  8
0
  6
CONTINUOUS
 10
535.71719249341299
 20
128.21889776711859
 30
0.0
 11
534.33340013666214
 21
128.21889776711859
 31
0.0
 12
534.25299536765078
 22
128.0247834832918
 32
0.0
 13
534.25299536765078
 23
128.0247834832918
 33
0.0
210
0.0
220
0.0
230
-1.0
  0
SOLID
  5
6A2
  8
0
  6
CONTINUOUS
 10
-535.38097669134982
 20
128.0247834832918
 30
0.0
 11
-535.33629165288426
 21
127.9473867263312
 31
0.0
 12
-534.2209365812339
 22
127.9473867263312
 32
0.0
 13
-534.2209365812339
 23
127.9473867263312
 33
0.0
210
0.0
220
0.0
230
1.0
  0
SOLID
  5
6A3
  8
0
  6
CONTINUOUS
 10
535.38097669134982
 20
128.0247834832918
 30
0.0
 11
534.25299536765078
 21
128.0247834832918
 31
0.0
 12
534.2209365812339
 22
127.9473867263312
 32
0.0
 13
534.2209365812339
 23
127.9473867263312
 33
0.0
210
0.0
220
0.0
230
-1.0
  0
SOLID
  5
6A4
  8
0
  6
CONTINUOUS
 10
-550.37621246009144
 20
128.07103536810101
 30
0.0
 11
-550.44910491155156
 21
127.79639555532501
 31
0.0
 12
-549.42687257387524
 22
127.79639555532501
 32
0.0
 13
-549.42687257387524
 23
127.79639555532501
 33
0.0
210
0.0
220
0.0
230
1.0
  0
SOLID
  5
6A5
  8
0
  6
CONTINUOUS
 10
550.37621246009144
 20
128.07103536810101
 30
0.0
 11
549.21997576354283
 21
128.07103536810101
 31
0.0
 12
549.42687257387524
 22
127.79639555532501
 32
0.0
 13
549.42687257387524
 23
127.79639555532501
 33
0.0
210
0.0
220
0.0
230
-1.0
  0
SOLID
  5
6A6
  8
0
  6
CONTINUOUS
 10
-535.33629165288426
 20
127.9473867263312
 30
0.0
 11
-535.18686240752299
 21
127.6885676812287
 31
0.0
 12
-534.18686240752299
 22
127.6885676812287
 32
0.0
 13
-534.18686240752299
 23
127.6885676812287
 33
0.0
210
0.0
220
0.0
230
1.0
  0
SOLID
  5
6A7
  8
0
  6
CONTINUOUS
 10
535.33629165288426
 20
127.9473867263312
 30
0.0
 11
534.2209365812339
 21
127.9473867263312
 31
0.0
 12
534.18686240752299
 22
127.6885676812287
 32
0.0
 13
534.18686240752299
 23
127.6885676812287
 33
0.0
210
0.0
220
0.0
230
-1.0
  0
SOLID
  5
6A8
  8
0
  6
CONTINUOUS
 10
-550.44910491155156
 20
127.79639555532501
 30
0.0
 11
-550.49892390537661
 21
127.6086905342609
 31
0.0
 12
-549.46197580698458
 22
127.6086905342609
 32
0.0
 13
-549.46197580698458
 23
127.6086905342609
 33
0.0
210
0.0
220
0.0
230
1.0
  0
SOLID
  5
6A9
  8
0
  6
CONTINUOUS
 10
550.44910491155156
 20
127.79639555532501
 30
0.0
 11
549.42687257387524
 21
127.79639555532501
 31
0.0
 12
549.46197580698458
 22
127.6086905342609
 32
0.0
 13
549.46197580698458
 23
127.6086905342609
 33
0.0
210
0.0
220
0.0
230
-1.0
  0
SOLID
  5
6AA
  8
0
  6
CONTINUOUS
 10
-535.18686240752299
 20
127.6885676812287
 30
0.0
 11
-535.1613067772397
 21
127.4944533974018
 31
0.0
 12
-534.16130677723982
 22
127.4944533974018
 32
0.0
 13
-534.16130677723982
 23
127.4944533974018
 33
0.0
  0
SOLID
  5
6AB
  8
0
  6
CONTINUOUS
 10
535.18686240752299
 20
127.6885676812287
 30
0.0
 11
534.18686240752299
 21
127.6885676812287
 31
0.0
 12
534.16130677723982
 22
127.4944533974018
 32
0.0
 13
534.16130677723982
 23
127.4944533974018
 33
0.0
210
0.0
220
0.0
230
-1.0
  0
SOLID
  5
6AC
  8
0
  6
CONTINUOUS
 10
-535.1613067772397
 20
127.4944533974018
 30
0.0
 11
-535.1613067772397
 21
124.8337292962775
 31
0.0
 12
-534.16130677723982
 22
124.8337292962775
 32
0.0
 13
-534.16130677723982
 23
124.8337292962775
 33
0.0
  0
SOLID
  5
6AD
  8
0
  6
CONTINUOUS
 10
535.1613067772397
 20
127.4944533974018
 30
0.0
 11
534.16130677723982
 21
127.4944533974018
 31
0.0
 12
534.16130677723982
 22
124.8337292962775
 32
0.0
 13
534.16130677723982
 23
124.8337292962775
 33
0.0
210
0.0
220
0.0
230
-1.0
  0
SOLID
  5
6AE
  8
0
  6
CONTINUOUS
 10
-550.49892390537661
 20
127.6086905342609
 30
0.0
 11
-552.45700361319132
 21
117.0316774816166
 31
0.0
 12
-551.44001215722722
 22
117.0316774816166
 32
0.0
 13
-551.44001215722722
 23
117.0316774816166
 33
0.0
210
0.0
220
0.0
230
1.0
  0
SOLID
  5
6AF
  8
0
  6
CONTINUOUS
 10
550.49892390537661
 20
127.6086905342609
 30
0.0
 11
549.46197580698458
 21
127.6086905342609
 31
0.0
 12
551.44001215722722
 22
117.0316774816166
 32
0.0
 13
551.44001215722722
 23
117.0316774816166
 33
0.0
210
0.0
220
0.0
230
-1.0
  0
SOLID
  5
6B0
  8
0
  6
CONTINUOUS
 10
-552.45700361319132
 20
117.0316774816166
 30
0.0
 11
-552.49612532181641
 21
116.8203526713356
 31
0.0
 12
-551.46599294923362
 22
116.8203526713356
 32
0.0
 13
-551.46599294923362
 23
116.8203526713356
 33
0.0
210
0.0
220
0.0
230
1.0
  0
SOLID
  5
6B1
  8
0
  6
CONTINUOUS
 10
552.45700361319132
 20
117.0316774816166
 30
0.0
 11
551.44001215722722
 21
117.0316774816166
 31
0.0
 12
551.46599294923362
 22
116.8203526713356
 32
0.0
 13
551.46599294923362
 23
116.8203526713356
 33
0.0
210
0.0
220
0.0
230
-1.0
  0
SOLID
  5
6B2
  8
0
  6
CONTINUOUS
 10
-552.49612532181641
 20
116.8203526713356
 30
0.0
 11
-552.53435155780096
 21
116.2232186542054
 31
0.0
 12
-551.5394060741686
 22
116.2232186542054
 32
0.0
 13
-551.5394060741686
 23
116.2232186542054
 33
0.0
  0
SOLID
  5
6B3
  8
0
  6
CONTINUOUS
 10
552.49612532181641
 20
116.8203526713356
 30
0.0
 11
551.46599294923362
 21
116.8203526713356
 31
0.0
 12
551.5394060741686
 22
116.2232186542054
 32
0.0
 13
551.5394060741686
 23
116.2232186542054
 33
0.0
210
0.0
220
0.0
230
-1.0
  0
SOLID
  5
6B4
  8
0
  6
CONTINUOUS
 10
-552.53435155780096
 20
116.2232186542054
 30
0.0
 11
-552.53788317976114
 21
116.1680510041963
 31
0.0
 12
-551.52969062408465
 22
116.1680510041963
 32
0.0
 13
-551.52969062408465
 23
116.1680510041963
 33
0.0
210
0.0
220
0.0
230
1.0
  0
SOLID
  5
6B5
  8
0
  6
CONTINUOUS
 10
552.53435155780096
 20
116.2232186542054
 30
0.0
 11
551.5394060741686
 21
116.2232186542054
 31
0.0
 12
551.52969062408465
 22
116.1680510041963
 32
0.0
 13
551.52969062408465
 23
116.1680510041963
 33
0.0
210
0.0
220
0.0
230
-1.0
  0
SOLID
  5
6B6
  8
0
  6
CONTINUOUS
 10
-552.53788317976114
 20
116.1680510041963
 30
0.0
 11
-552.47545664579013
 21
115.8135717832035
 31
0.0
 12
-551.46726409011353
 22
115.8135717832035
 32
0.0
 13
-551.46726409011353
 23
115.8135717832035
 33
0.0
210
0.0
220
0.0
230
1.0
  0
SOLID
  5
6B7
  8
0
  6
CONTINUOUS
 10
552.53788317976114
 20
116.1680510041963
 30
0.0
 11
551.52969062408465
 21
116.1680510041963
 31
0.0
 12
551.46726409011353
 22
115.8135717832035
 32
0.0
 13
551.46726409011353
 23
115.8135717832035
 33
0.0
210
0.0
220
0.0
230
-1.0
  0
SOLID
  5
6B8
  8
0
  6
CONTINUOUS
 10
-552.47545664579013
 20
115.8135717832035
 30
0.0
 11
-552.42451720481745
 21
115.5243202069076
 31
0.0
 12
-551.34066170266283
 22
115.5243202069076
 32
0.0
 13
-551.34066170266283
 23
115.5243202069076
 33
0.0
210
0.0
220
0.0
230
1.0
  0
SOLID
  5
6B9
  8
0
  6
CONTINUOUS
 10
552.47545664579013
 20
115.8135717832035
 30
0.0
 11
551.46726409011353
 21
115.8135717832035
 31
0.0
 12
551.34066170266283
 22
115.5243202069076
 32
0.0
 13
551.34066170266283
 23
115.5243202069076
 33
0.0
210
0.0
220
0.0
230
-1.0
  0
SOLID
  5
6BA
  8
0
  6
CONTINUOUS
 10
-552.42451720481745
 20
115.5243202069076
 30
0.0
 11
-552.38433808171806
 21
115.43252197999681
 31
0.0
 12
-551.30048257956355
 22
115.43252197999681
 32
0.0
 13
-551.30048257956355
 23
115.43252197999681
 33
0.0
210
0.0
220
0.0
230
1.0
  0
SOLID
  5
6BB
  8
0
  6
CONTINUOUS
 10
552.42451720481745
 20
115.5243202069076
 30
0.0
 11
551.34066170266283
 21
115.5243202069076
 31
0.0
 12
551.30048257956355
 22
115.43252197999681
 32
0.0
 13
551.30048257956355
 23
115.43252197999681
 33
0.0
210
0.0
220
0.0
230
-1.0
  0
SOLID
  5
6BC
  8
0
  6
CONTINUOUS
 10
-552.38433808171806
 20
115.43252197999681
 30
0.0
 11
-552.23949548015958
 21
115.1015965396536
 31
0.0
 12
-551.04848381425131
 22
115.1015965396536
 32
0.0
 13
-551.04848381425131
 23
115.1015965396536
 33
0.0
210
0.0
220
0.0
230
1.0
  0
SOLID
  5
6BD
  8
0
  6
CONTINUOUS
 10
552.38433808171806
 20
115.43252197999681
 30
0.0
 11
551.30048257956355
 21
115.43252197999681
 31
0.0
 12
551.04848381425131
 22
115.1015965396536
 32
0.0
 13
551.04848381425131
 23
115.1015965396536
 33
0.0
210
0.0
220
0.0
230
-1.0
  0
SOLID
  5
6BE
  8
0
  6
CONTINUOUS
 10
-552.23949548015958
 20
115.1015965396536
 30
0.0
 11
-552.16243197395318
 21
114.92552765901161
 31
0.0
 12
-550.77368785884744
 22
114.92552765901161
 32
0.0
 13
-550.77368785884744
 23
114.92552765901161
 33
0.0
210
0.0
220
0.0
230
1.0
  0
SOLID
  5
6BF
  8
0
  6
CONTINUOUS
 10
552.23949548015958
 20
115.1015965396536
 30
0.0
 11
551.04848381425131
 21
115.1015965396536
 31
0.0
 12
550.77368785884744
 22
114.92552765901161
 32
0.0
 13
550.77368785884744
 23
114.92552765901161
 33
0.0
210
0.0
220
0.0
230
-1.0
  0
SOLID
  5
6C0
  8
0
  6
CONTINUOUS
 10
-552.16243197395318
 20
114.92552765901161
 30
0.0
 11
-551.76643391417701
 21
114.405501967044
 31
0.0
 12
-549.96206824533158
 22
114.405501967044
 32
0.0
 13
-549.96206824533158
 23
114.405501967044
 33
0.0
210
0.0
220
0.0
230
1.0
  0
SOLID
  5
6C1
  8
0
  6
CONTINUOUS
 10
552.16243197395318
 20
114.92552765901161
 30
0.0
 11
550.77368785884744
 21
114.92552765901161
 31
0.0
 12
549.96206824533158
 22
114.405501967044
 32
0.0
 13
549.96206824533158
 23
114.405501967044
 33
0.0
210
0.0
220
0.0
230
-1.0
  0
SOLID
  5
6C2
  8
0
  6
CONTINUOUS
 10
-551.76643391417701
 20
114.405501967044
 30
0.0
 11
-551.25889481785703
 21
113.99362182748951
 31
0.0
 12
-549.31923462221721
 22
113.99362182748951
 32
0.0
 13
-549.31923462221721
 23
113.99362182748951
 33
0.0
210
0.0
220
0.0
230
1.0
  0
SOLID
  5
6C3
  8
0
  6
CONTINUOUS
 10
551.76643391417701
 20
114.405501967044
 30
0.0
 11
549.96206824533158
 21
114.405501967044
 31
0.0
 12
549.31923462221721
 22
113.99362182748951
 32
0.0
 13
549.31923462221721
 23
113.99362182748951
 33
0.0
210
0.0
220
0.0
230
-1.0
  0
SOLID
  5
6C4
  8
0
  6
CONTINUOUS
 10
-420.75000000000108
 20
112.8297633734888
 30
0.0
 11
-421.33234285148188
 21
112.75309648263909
 31
0.0
 12
-420.16765714852011
 22
112.75309648263909
 32
0.0
 13
-420.16765714852011
 23
112.75309648263909
 33
0.0
210
0.0
220
0.0
230
1.0
  0
SOLID
  5
6C5
  8
0
  6
CONTINUOUS
 10
-421.33234285148188
 20
112.75309648263909
 30
0.0
 11
-421.87500000000148
 21
112.5283205320036
 31
0.0
 12
-419.62500000000063
 22
112.5283205320036
 32
0.0
 13
-419.62500000000063
 23
112.5283205320036
 33
0.0
210
0.0
220
0.0
230
1.0
  0
SOLID
  5
6C6
  8
0
  6
CONTINUOUS
 10
421.33234285148188
 20
112.75309648263909
 30
0.0
 11
420.16765714852011
 21
112.75309648263909
 31
0.0
 12
419.62500000000063
 22
112.5283205320036
 32
0.0
 13
419.62500000000063
 23
112.5283205320036
 33
0.0
210
0.0
220
0.0
230
-1.0
  0
SOLID
  5
6C7
  8
0
  6
CONTINUOUS
 10
-421.87500000000148
 20
112.5283205320036
 30
0.0
 11
-422.34099025767142
 21
112.17075363115831
 31
0.0
 12
-419.15900974233062
 22
112.17075363115831
 32
0.0
 13
-419.15900974233062
 23
112.17075363115831
 33
0.0
210
0.0
220
0.0
230
1.0
  0
SOLID
  5
6C8
  8
0
  6
CONTINUOUS
 10
421.87500000000148
 20
112.5283205320036
 30
0.0
 11
419.62500000000063
 21
112.5283205320036
 31
0.0
 12
419.15900974233062
 22
112.17075363115831
 32
0.0
 13
419.15900974233062
 23
112.17075363115831
 33
0.0
210
0.0
220
0.0
230
-1.0
  0
SOLID
  5
6C9
  8
0
  6
CONTINUOUS
 10
-422.34099025767142
 20
112.17075363115831
 30
0.0
 11
-422.60264128501899
 21
111.8297633734889
 31
0.0
 12
-418.89735871498289
 22
111.8297633734889
 32
0.0
 13
-418.89735871498289
 23
111.8297633734889
 33
0.0
210
0.0
220
0.0
230
1.0
  0
SOLID
  5
6CA
  8
0
  6
CONTINUOUS
 10
422.34099025767142
 20
112.17075363115831
 30
0.0
 11
419.15900974233062
 21
112.17075363115831
 31
0.0
 12
418.89735871498289
 22
111.8297633734889
 32
0.0
 13
418.89735871498289
 23
111.8297633734889
 33
0.0
210
0.0
220
0.0
230
-1.0
  0
SOLID
  5
6CB
  8
0
  6
CONTINUOUS
 10
-420.75000000000108
 20
111.8297633734889
 30
0.0
 11
-420.42647619362151
 21
111.7871706563501
 31
0.0
 12
-418.86467617363098
 22
111.7871706563501
 32
0.0
 13
-418.86467617363098
 23
111.7871706563501
 33
0.0
210
0.0
220
0.0
230
1.0
  0
SOLID
  5
6CC
  8
0
  6
CONTINUOUS
 10
420.75000000000108
 20
111.8297633734889
 30
0.0
 11
418.89735871498289
 21
111.8297633734889
 31
0.0
 12
418.86467617363098
 22
111.7871706563501
 32
0.0
 13
418.86467617363098
 23
111.7871706563501
 33
0.0
210
0.0
220
0.0
230
-1.0
  0
SOLID
  5
6CD
  8
0
  6
CONTINUOUS
 10
-422.60264128501899
 20
111.8297633734889
 30
0.0
 11
-422.63532382637101
 21
111.7871706563501
 31
0.0
 12
-421.0735238063794
 22
111.7871706563501
 32
0.0
 13
-421.0735238063794
 23
111.7871706563501
 33
0.0
210
0.0
220
0.0
230
1.0
  0
SOLID
  5
6CE
  8
0
  6
CONTINUOUS
 10
422.60264128501899
 20
111.8297633734889
 30
0.0
 11
420.75000000000108
 21
111.8297633734889
 31
0.0
 12
421.0735238063794
 22
111.7871706563501
 32
0.0
 13
421.0735238063794
 23
111.7871706563501
 33
0.0
210
0.0
220
0.0
230
-1.0
  0
SOLID
  5
6CF
  8
0
  6
CONTINUOUS
 10
-420.42647619362219
 20
111.7871706563501
 30
0.0
 11
-420.22752741369942
 21
111.7047633734884
 31
0.0
 12
-418.8014428414852
 22
111.7047633734884
 32
0.0
 13
-418.8014428414852
 23
111.7047633734884
 33
0.0
210
0.0
220
0.0
230
1.0
  0
SOLID
  5
6D0
  8
0
  6
CONTINUOUS
 10
420.42647619362219
 20
111.7871706563501
 30
0.0
 11
418.86467617363098
 21
111.7871706563501
 31
0.0
 12
418.8014428414852
 22
111.7047633734884
 32
0.0
 13
418.8014428414852
 23
111.7047633734884
 33
0.0
210
0.0
220
0.0
230
-1.0
  0
SOLID
  5
6D1
  8
0
  6
CONTINUOUS
 10
-422.63532382637101
 20
111.7871706563501
 30
0.0
 11
-422.69855715851668
 21
111.7047633734884
 31
0.0
 12
-421.27247258630263
 22
111.7047633734884
 32
0.0
 13
-421.27247258630263
 23
111.7047633734884
 33
0.0
210
0.0
220
0.0
230
1.0
  0
SOLID
  5
6D2
  8
0
  6
CONTINUOUS
 10
422.63532382637101
 20
111.7871706563501
 30
0.0
 11
421.0735238063794
 21
111.7871706563501
 31
0.0
 12
421.27247258630263
 22
111.7047633734884
 32
0.0
 13
421.27247258630263
 23
111.7047633734884
 33
0.0
210
0.0
220
0.0
230
-1.0
  0
SOLID
  5
6D3
  8
0
  6
CONTINUOUS
 10
-420.22752741369942
 20
111.7047633734884
 30
0.0
 11
-420.12500000000068
 21
111.6622951282193
 31
0.0
 12
-418.7838519183245
 22
111.6622951282193
 32
0.0
 13
-418.7838519183245
 23
111.6622951282193
 33
0.0
210
0.0
220
0.0
230
1.0
  0
SOLID
  5
6D4
  8
0
  6
CONTINUOUS
 10
420.22752741369942
 20
111.7047633734884
 30
0.0
 11
418.8014428414852
 21
111.7047633734884
 31
0.0
 12
418.7838519183245
 22
111.6622951282193
 32
0.0
 13
418.7838519183245
 23
111.6622951282193
 33
0.0
210
0.0
220
0.0
230
-1.0
  0
SOLID
  5
6D5
  8
0
  6
CONTINUOUS
 10
-422.69855715851668
 20
111.7047633734884
 30
0.0
 11
-422.71614808167737
 21
111.6622951282193
 31
0.0
 12
-421.37500000000148
 22
111.6622951282193
 32
0.0
 13
-421.37500000000148
 23
111.6622951282193
 33
0.0
210
0.0
220
0.0
230
1.0
  0
SOLID
  5
6D6
  8
0
  6
CONTINUOUS
 10
422.69855715851668
 20
111.7047633734884
 30
0.0
 11
421.27247258630263
 21
111.7047633734884
 31
0.0
 12
421.37500000000148
 22
111.6622951282193
 32
0.0
 13
421.37500000000148
 23
111.6622951282193
 33
0.0
210
0.0
220
0.0
230
-1.0
  0
SOLID
  5
6D7
  8
0
  6
CONTINUOUS
 10
-420.12500000000068
 20
111.6622951282193
 30
0.0
 11
-419.86611652351689
 21
111.4636468499717
 31
0.0
 12
-418.70156910733238
 22
111.4636468499717
 32
0.0
 13
-418.70156910733238
 23
111.4636468499717
 33
0.0
  0
SOLID
  5
6D8
  8
0
  6
CONTINUOUS
 10
420.12500000000068
 20
111.6622951282193
 30
0.0
 11
418.7838519183245
 21
111.6622951282193
 31
0.0
 12
418.70156910733238
 22
111.4636468499717
 32
0.0
 13
418.70156910733238
 23
111.4636468499717
 33
0.0
210
0.0
220
0.0
230
-1.0
  0
SOLID
  5
6D9
  8
0
  6
CONTINUOUS
 10
-422.71614808167737
 20
111.6622951282193
 30
0.0
 11
-422.7984308926695
 21
111.4636468499717
 31
0.0
 12
-421.6338834764847
 22
111.4636468499717
 32
0.0
 13
-421.6338834764847
 23
111.4636468499717
 33
0.0
210
0.0
220
0.0
230
1.0
  0
SOLID
  5
6DA
  8
0
  6
CONTINUOUS
 10
422.71614808167737
 20
111.6622951282193
 30
0.0
 11
421.37500000000148
 21
111.6622951282193
 31
0.0
 12
421.6338834764847
 22
111.4636468499717
 32
0.0
 13
421.6338834764847
 23
111.4636468499717
 33
0.0
210
0.0
220
0.0
230
-1.0
  0
SOLID
  5
6DB
  8
0
  6
CONTINUOUS
 10
-551.25889481785703
 20
113.99362182748951
 30
0.0
 11
-547.16176953181775
 21
111.41004567568309
 31
0.0
 12
-545.2869702356561
 22
111.41004567568309
 32
0.0
 13
-545.2869702356561
 23
111.41004567568309
 33
0.0
210
0.0
220
0.0
230
1.0
  0
SOLID
  5
6DC
  8
0
  6
CONTINUOUS
 10
551.25889481785703
 20
113.99362182748951
 30
0.0
 11
549.31923462221721
 21
113.99362182748951
 31
0.0
 12
545.2869702356561
 22
111.41004567568309
 32
0.0
 13
545.2869702356561
 23
111.41004567568309
 33
0.0
210
0.0
220
0.0
230
-1.0
  0
SOLID
  5
6DD
  8
0
  6
CONTINUOUS
 10
-419.86611652351701
 20
111.4636468499717
 30
0.0
 11
-419.66746824526967
 21
111.2047633734885
 31
0.0
 12
-418.59433606029882
 22
111.2047633734885
 32
0.0
 13
-418.59433606029882
 23
111.2047633734885
 33
0.0
210
0.0
220
0.0
230
1.0
  0
SOLID
  5
6DE
  8
0
  6
CONTINUOUS
 10
419.86611652351701
 20
111.4636468499717
 30
0.0
 11
418.70156910733238
 21
111.4636468499717
 31
0.0
 12
418.59433606029882
 22
111.2047633734885
 32
0.0
 13
418.59433606029882
 23
111.2047633734885
 33
0.0
210
0.0
220
0.0
230
-1.0
  0
SOLID
  5
6DF
  8
0
  6
CONTINUOUS
 10
-422.7984308926695
 20
111.4636468499717
 30
0.0
 11
-422.90566393970317
 21
111.2047633734885
 31
0.0
 12
-421.83253175473232
 22
111.2047633734885
 32
0.0
 13
-421.83253175473232
 23
111.2047633734885
 33
0.0
210
0.0
220
0.0
230
1.0
  0
SOLID
  5
6E0
  8
0
  6
CONTINUOUS
 10
422.7984308926695
 20
111.4636468499717
 30
0.0
 11
421.6338834764847
 21
111.4636468499717
 31
0.0
 12
421.83253175473232
 22
111.2047633734885
 32
0.0
 13
421.83253175473232
 23
111.2047633734885
 33
0.0
210
0.0
220
0.0
230
-1.0
  0
SOLID
  5
6E1
  8
0
  6
CONTINUOUS
 10
-419.66746824526967
 20
111.2047633734885
 30
0.0
 11
-419.64979907582068
 21
111.1621062249688
 31
0.0
 12
-418.57666689084971
 22
111.1621062249688
 32
0.0
 13
-418.57666689084971
 23
111.1621062249688
 33
0.0
210
0.0
220
0.0
230
1.0
  0
SOLID
  5
6E2
  8
0
  6
CONTINUOUS
 10
419.66746824526967
 20
111.2047633734885
 30
0.0
 11
418.59433606029882
 21
111.2047633734885
 31
0.0
 12
418.57666689084971
 22
111.1621062249688
 32
0.0
 13
418.57666689084971
 23
111.1621062249688
 33
0.0
210
0.0
220
0.0
230
-1.0
  0
SOLID
  5
6E3
  8
0
  6
CONTINUOUS
 10
-422.90566393970317
 20
111.2047633734885
 30
0.0
 11
-422.92333310915222
 21
111.1621062249688
 31
0.0
 12
-421.85020092418131
 22
111.1621062249688
 32
0.0
 13
-421.85020092418131
 23
111.1621062249688
 33
0.0
210
0.0
220
0.0
230
1.0
  0
SOLID
  5
6E4
  8
0
  6
CONTINUOUS
 10
422.90566393970317
 20
111.2047633734885
 30
0.0
 11
421.83253175473232
 21
111.2047633734885
 31
0.0
 12
421.85020092418131
 22
111.1621062249688
 32
0.0
 13
421.85020092418131
 23
111.1621062249688
 33
0.0
210
0.0
220
0.0
230
-1.0
  0
SOLID
  5
6E5
  8
0
  6
CONTINUOUS
 10
-419.64979907582068
 20
111.1621062249688
 30
0.0
 11
-419.5425927171388
 21
110.9032871798663
 31
0.0
 12
-418.5425927171388
 22
110.9032871798663
 32
0.0
 13
-418.5425927171388
 23
110.9032871798663
 33
0.0
  0
SOLID
  5
6E6
  8
0
  6
CONTINUOUS
 10
419.64979907582068
 20
111.1621062249688
 30
0.0
 11
418.57666689084971
 21
111.1621062249688
 31
0.0
 12
418.5425927171388
 22
110.9032871798663
 32
0.0
 13
418.5425927171388
 23
110.9032871798663
 33
0.0
210
0.0
220
0.0
230
-1.0
  0
SOLID
  5
6E7
  8
0
  6
CONTINUOUS
 10
-422.92333310915222
 20
111.1621062249688
 30
0.0
 11
-422.95740728286307
 21
110.9032871798663
 31
0.0
 12
-421.95740728286307
 22
110.9032871798663
 32
0.0
 13
-421.95740728286307
 23
110.9032871798663
 33
0.0
210
0.0
220
0.0
230
1.0
  0
SOLID
  5
6E8
  8
0
  6
CONTINUOUS
 10
422.92333310915222
 20
111.1621062249688
 30
0.0
 11
421.85020092418131
 21
111.1621062249688
 31
0.0
 12
421.95740728286307
 22
110.9032871798663
 32
0.0
 13
421.95740728286307
 23
110.9032871798663
 33
0.0
210
0.0
220
0.0
230
-1.0
  0
SOLID
  5
6E9
  8
0
  6
CONTINUOUS
 10
-419.5425927171388
 20
110.9032871798663
 30
0.0
 11
-419.50000000000011
 21
110.57976337348791
 31
0.0
 12
-418.50000000000011
 22
110.57976337348791
 32
0.0
 13
-418.50000000000011
 23
110.57976337348791
 33
0.0
210
0.0
220
0.0
230
1.0
  0
SOLID
  5
6EA
  8
0
  6
CONTINUOUS
 10
419.5425927171388
 20
110.9032871798663
 30
0.0
 11
418.5425927171388
 21
110.9032871798663
 31
0.0
 12
418.50000000000011
 22
110.57976337348791
 32
0.0
 13
418.50000000000011
 23
110.57976337348791
 33
0.0
210
0.0
220
0.0
230
-1.0
  0
SOLID
  5
6EB
  8
0
  6
CONTINUOUS
 10
-422.95740728286307
 20
110.9032871798663
 30
0.0
 11
-423.00000000000188
 21
110.57976337348791
 31
0.0
 12
-421.95999574841233
 22
110.57976337348791
 32
0.0
 13
-421.95999574841233
 23
110.57976337348791
 33
0.0
  0
SOLID
  5
6EC
  8
0
  6
CONTINUOUS
 10
422.95740728286307
 20
110.9032871798663
 30
0.0
 11
421.95740728286307
 21
110.9032871798663
 31
0.0
 12
421.95999574841233
 22
110.57976337348791
 32
0.0
 13
421.95999574841233
 23
110.57976337348791
 33
0.0
210
0.0
220
0.0
230
-1.0
  0
SOLID
  5
6ED
  8
0
  6
CONTINUOUS
 10
-547.16176953181775
 20
111.41004567568309
 30
0.0
 11
-545.82036066419266
 21
110.5641765068718
 31
0.0
 12
-544.11951618625062
 22
110.5641765068718
 32
0.0
 13
-544.11951618625062
 23
110.5641765068718
 33
0.0
210
0.0
220
0.0
230
1.0
  0
SOLID
  5
6EE
  8
0
  6
CONTINUOUS
 10
547.16176953181775
 20
111.41004567568309
 30
0.0
 11
545.2869702356561
 21
111.41004567568309
 31
0.0
 12
544.11951618625062
 22
110.5641765068718
 32
0.0
 13
544.11951618625062
 23
110.5641765068718
 33
0.0
210
0.0
220
0.0
230
-1.0
  0
SOLID
  5
6EF
  8
0
  6
CONTINUOUS
 10
-545.82036066419266
 20
110.5641765068718
 30
0.0
 11
-543.87109144315127
 21
109.15184962631371
 31
0.0
 12
-542.17024696520912
 22
109.15184962631371
 32
0.0
 13
-542.17024696520912
 23
109.15184962631371
 33
0.0
210
0.0
220
0.0
230
1.0
  0
SOLID
  5
6F0
  8
0
  6
CONTINUOUS
 10
545.82036066419266
 20
110.5641765068718
 30
0.0
 11
544.11951618625062
 21
110.5641765068718
 31
0.0
 12
542.17024696520912
 22
109.15184962631371
 32
0.0
 13
542.17024696520912
 23
109.15184962631371
 33
0.0
210
0.0
220
0.0
230
-1.0
  0
SOLID
  5
6F1
  8
0
  6
CONTINUOUS
 10
-543.87109144315127
 20
109.15184962631371
 30
0.0
 11
-542.80666956797563
 21
108.3806315665726
 31
0.0
 12
-541.34544810790055
 22
108.3806315665726
 32
0.0
 13
-541.34544810790055
 23
108.3806315665726
 33
0.0
210
0.0
220
0.0
230
1.0
  0
SOLID
  5
6F2
  8
0
  6
CONTINUOUS
 10
543.87109144315127
 20
109.15184962631371
 30
0.0
 11
542.17024696520912
 21
109.15184962631371
 31
0.0
 12
541.34544810790055
 22
108.3806315665726
 32
0.0
 13
541.34544810790055
 23
108.3806315665726
 33
0.0
210
0.0
220
0.0
230
-1.0
  0
SOLID
  5
6F3
  8
0
  6
CONTINUOUS
 10
-542.80666956797563
 20
108.3806315665726
 30
0.0
 11
-540.86426267394188
 21
106.5644078136292
 31
0.0
 12
-539.40304121386714
 22
106.5644078136292
 32
0.0
 13
-539.40304121386714
 23
106.5644078136292
 33
0.0
210
0.0
220
0.0
230
1.0
  0
SOLID
  5
6F4
  8
0
  6
CONTINUOUS
 10
542.80666956797563
 20
108.3806315665726
 30
0.0
 11
541.34544810790055
 21
108.3806315665726
 31
0.0
 12
539.40304121386714
 22
106.5644078136292
 32
0.0
 13
539.40304121386714
 23
106.5644078136292
 33
0.0
210
0.0
220
0.0
230
-1.0
  0
SOLID
  5
6F5
  8
0
  6
CONTINUOUS
 10
-540.86426267394188
 20
106.5644078136292
 30
0.0
 11
-540.13094169271096
 21
105.8787250204232
 31
0.0
 12
-538.83524380978258
 22
105.8787250204232
 32
0.0
 13
-538.83524380978258
 23
105.8787250204232
 33
0.0
210
0.0
220
0.0
230
1.0
  0
SOLID
  5
6F6
  8
0
  6
CONTINUOUS
 10
540.86426267394188
 20
106.5644078136292
 30
0.0
 11
539.40304121386714
 21
106.5644078136292
 31
0.0
 12
538.83524380978258
 22
105.8787250204232
 32
0.0
 13
538.83524380978258
 23
105.8787250204232
 33
0.0
210
0.0
220
0.0
230
-1.0
  0
SOLID
  5
6F7
  8
0
  6
CONTINUOUS
 10
-423.00000000000188
 20
110.57976337348791
 30
0.0
 11
-423.00000000000188
 21
105.57976337348791
 31
0.0
 12
-422.00000000000188
 22
105.57976337348791
 32
0.0
 13
-422.00000000000188
 23
105.57976337348791
 33
0.0
210
0.0
220
0.0
230
1.0
  0
SOLID
  5
6F8
  8
0
  6
CONTINUOUS
 10
423.00000000000188
 20
110.57976337348791
 30
0.0
 11
421.95999574841233
 21
110.57976337348791
 31
0.0
 12
422.00000000000188
 22
105.57976337348791
 32
0.0
 13
422.00000000000188
 23
105.57976337348791
 33
0.0
210
0.0
220
0.0
230
-1.0
  0
SOLID
  5
6F9
  8
0
  6
CONTINUOUS
 10
-540.13094169271096
 20
105.8787250204232
 30
0.0
 11
-538.26324934043885
 21
103.6232647105608
 31
0.0
 12
-536.96755145751058
 22
103.6232647105608
 32
0.0
 13
-536.96755145751058
 23
103.6232647105608
 33
0.0
210
0.0
220
0.0
230
1.0
  0
SOLID
  5
6FA
  8
0
  6
CONTINUOUS
 10
540.13094169271096
 20
105.8787250204232
 30
0.0
 11
538.83524380978258
 21
105.8787250204232
 31
0.0
 12
536.96755145751058
 22
103.6232647105608
 32
0.0
 13
536.96755145751058
 23
103.6232647105608
 33
0.0
210
0.0
220
0.0
230
-1.0
  0
SOLID
  5
6FB
  8
0
  6
CONTINUOUS
 10
-538.26324934043885
 20
103.6232647105608
 30
0.0
 11
-537.77596399441575
 21
103.0348097885305
 31
0.0
 12
-536.59301842901459
 22
103.0348097885305
 32
0.0
 13
-536.59301842901459
 23
103.0348097885305
 33
0.0
210
0.0
220
0.0
230
1.0
  0
SOLID
  5
6FC
  8
0
  6
CONTINUOUS
 10
538.26324934043885
 20
103.6232647105608
 30
0.0
 11
536.96755145751058
 21
103.6232647105608
 31
0.0
 12
536.59301842901459
 22
103.0348097885305
 32
0.0
 13
536.59301842901459
 23
103.0348097885305
 33
0.0
210
0.0
220
0.0
230
-1.0
  0
SOLID
  5
6FD
  8
0
  6
CONTINUOUS
 10
-537.77596399441575
 20
103.0348097885305
 30
0.0
 11
-536.10012783389971
 21
100.4017868983146
 31
0.0
 12
-534.91718226849855
 22
100.4017868983146
 32
0.0
 13
-534.91718226849855
 23
100.4017868983146
 33
0.0
210
0.0
220
0.0
230
1.0
  0
SOLID
  5
6FE
  8
0
  6
CONTINUOUS
 10
537.77596399441575
 20
103.0348097885305
 30
0.0
 11
536.59301842901459
 21
103.0348097885305
 31
0.0
 12
534.91718226849855
 22
100.4017868983146
 32
0.0
 13
534.91718226849855
 23
100.4017868983146
 33
0.0
210
0.0
220
0.0
230
-1.0
  0
SOLID
  5
6FF
  8
0
  6
CONTINUOUS
 10
-536.10012783389971
 20
100.4017868983146
 30
0.0
 11
-535.79337560504052
 21
99.919827110573578
 31
0.0
 12
-534.69059447058021
 22
99.919827110573578
 32
0.0
 13
-534.69059447058021
 23
99.919827110573578
 33
0.0
210
0.0
220
0.0
230
1.0
  0
SOLID
  5
700
  8
0
  6
CONTINUOUS
 10
536.10012783389971
 20
100.4017868983146
 30
0.0
 11
534.91718226849855
 21
100.4017868983146
 31
0.0
 12
534.69059447058021
 22
99.919827110573578
 32
0.0
 13
534.69059447058021
 23
99.919827110573578
 33
0.0
210
0.0
220
0.0
230
-1.0
  0
SOLID
  5
701
  8
0
  6
CONTINUOUS
 10
-535.79337560504052
 20
99.919827110573578
 30
0.0
 11
-534.55666276910142
 21
97.289297746761562
 31
0.0
 12
-533.45388163464099
 22
97.289297746761562
 32
0.0
 13
-533.45388163464099
 23
97.289297746761562
 33
0.0
210
0.0
220
0.0
230
1.0
  0
SOLID
  5
702
  8
0
  6
CONTINUOUS
 10
535.79337560504052
 20
99.919827110573578
 30
0.0
 11
534.69059447058021
 21
99.919827110573578
 31
0.0
 12
533.45388163464099
 22
97.289297746761562
 32
0.0
 13
533.45388163464099
 23
97.289297746761562
 33
0.0
210
0.0
220
0.0
230
-1.0
  0
SOLID
  5
703
  8
0
  6
CONTINUOUS
 10
-534.55666276910142
 20
97.289297746761562
 30
0.0
 11
-534.23481565653583
 21
96.604718226230531
 31
0.0
 12
-533.2232109898539
 22
96.604718226230531
 32
0.0
 13
-533.2232109898539
 23
96.604718226230531
 33
0.0
210
0.0
220
0.0
230
1.0
  0
SOLID
  5
704
  8
0
  6
CONTINUOUS
 10
534.55666276910142
 20
97.289297746761562
 30
0.0
 11
533.45388163464099
 21
97.289297746761562
 31
0.0
 12
533.2232109898539
 22
96.604718226230531
 32
0.0
 13
533.2232109898539
 23
96.604718226230531
 33
0.0
210
0.0
220
0.0
230
-1.0
  0
SOLID
  5
705
  8
0
  6
CONTINUOUS
 10
-534.23481565653583
 20
96.604718226230531
 30
0.0
 11
-533.16366508972419
 21
93.313471362838243
 31
0.0
 12
-532.11421778546594
 22
93.313471362838243
 32
0.0
 13
-532.11421778546594
 23
93.313471362838243
 33
0.0
210
0.0
220
0.0
230
1.0
  0
SOLID
  5
706
  8
0
  6
CONTINUOUS
 10
534.23481565653583
 20
96.604718226230531
 30
0.0
 11
533.2232109898539
 21
96.604718226230531
 31
0.0
 12
532.11421778546594
 22
93.313471362838243
 32
0.0
 13
532.11421778546594
 23
93.313471362838243
 33
0.0
210
0.0
220
0.0
230
-1.0
  0
SOLID
  5
707
  8
0
  6
CONTINUOUS
 10
-533.16366508972419
 20
93.313471362838243
 30
0.0
 11
-533.08307110491808
 21
93.065836055608855
 31
0.0
 12
-532.05092312139709
 22
93.065836055608855
 32
0.0
 13
-532.05092312139709
 23
93.065836055608855
 33
0.0
210
0.0
220
0.0
230
1.0
  0
SOLID
  5
708
  8
0
  6
CONTINUOUS
 10
533.16366508972419
 20
93.313471362838243
 30
0.0
 11
532.11421778546594
 21
93.313471362838243
 31
0.0
 12
532.05092312139709
 22
93.065836055608855
 32
0.0
 13
532.05092312139709
 23
93.065836055608855
 33
0.0
210
0.0
220
0.0
230
-1.0
  0
SOLID
  5
709
  8
0
  6
CONTINUOUS
 10
-533.08307110491808
 20
93.065836055608855
 30
0.0
 11
-527.79373791779631
 21
72.371743305422058
 31
0.0
 12
-526.76158993427532
 22
72.371743305422058
 32
0.0
 13
-526.76158993427532
 23
72.371743305422058
 33
0.0
210
0.0
220
0.0
230
1.0
  0
SOLID
  5
70A
  8
0
  6
CONTINUOUS
 10
533.08307110491808
 20
93.065836055608855
 30
0.0
 11
532.05092312139709
 21
93.065836055608855
 31
0.0
 12
526.76158993427532
 22
72.371743305422058
 32
0.0
 13
526.76158993427532
 23
72.371743305422058
 33
0.0
210
0.0
220
0.0
230
-1.0
  0
SOLID
  5
70B
  8
0
  6
CONTINUOUS
 10
-527.79373791779631
 20
72.371743305422058
 30
0.0
 11
-527.63550125762413
 21
71.752655037347949
 31
0.0
 12
-526.53835855907005
 22
71.752655037347949
 32
0.0
 13
-526.53835855907005
 23
71.752655037347949
 33
0.0
  0
SOLID
  5
70C
  8
0
  6
CONTINUOUS
 10
527.79373791779631
 20
72.371743305422058
 30
0.0
 11
526.76158993427532
 21
72.371743305422058
 31
0.0
 12
526.53835855907005
 22
71.752655037347949
 32
0.0
 13
526.53835855907005
 23
71.752655037347949
 33
0.0
210
0.0
220
0.0
230
-1.0
  0
SOLID
  5
70D
  8
0
  6
CONTINUOUS
 10
-527.63550125762413
 20
71.752655037347949
 30
0.0
 11
-525.63912495653415
 21
66.319533979795864
 31
0.0
 12
-524.57927913876836
 22
66.319533979795864
 32
0.0
 13
-524.57927913876836
 23
66.319533979795864
 33
0.0
210
0.0
220
0.0
230
1.0
  0
SOLID
  5
70E
  8
0
  6
CONTINUOUS
 10
527.63550125762413
 20
71.752655037347949
 30
0.0
 11
526.53835855907005
 21
71.752655037347949
 31
0.0
 12
524.57927913876836
 22
66.319533979795864
 32
0.0
 13
524.57927913876836
 23
66.319533979795864
 33
0.0
210
0.0
220
0.0
230
-1.0
  0
SOLID
  5
70F
  8
0
  6
CONTINUOUS
 10
-525.63912495653415
 20
66.319533979795864
 30
0.0
 11
-525.47796880109786
 21
65.880948878792182
 31
0.0
 12
-524.30679722226773
 22
65.880948878792182
 32
0.0
 13
-524.30679722226773
 23
65.880948878792182
 33
0.0
210
0.0
220
0.0
230
1.0
  0
SOLID
  5
710
  8
0
  6
CONTINUOUS
 10
525.63912495653415
 20
66.319533979795864
 30
0.0
 11
524.57927913876836
 21
66.319533979795864
 31
0.0
 12
524.30679722226773
 22
65.880948878792182
 32
0.0
 13
524.30679722226773
 23
65.880948878792182
 33
0.0
210
0.0
220
0.0
230
-1.0
  0
SOLID
  5
711
  8
0
  6
CONTINUOUS
 10
-525.47796880109786
 20
65.880948878792182
 30
0.0
 11
-522.55661818503199
 21
61.178762137489777
 31
0.0
 12
-521.38544660620175
 22
61.178762137489777
 32
0.0
 13
-521.38544660620175
 23
61.178762137489777
 33
0.0
210
0.0
220
0.0
230
1.0
  0
SOLID
  5
712
  8
0
  6
CONTINUOUS
 10
525.47796880109786
 20
65.880948878792182
 30
0.0
 11
524.30679722226773
 21
65.880948878792182
 31
0.0
 12
521.38544660620175
 22
61.178762137489777
 32
0.0
 13
521.38544660620175
 23
61.178762137489777
 33
0.0
210
0.0
220
0.0
230
-1.0
  0
SOLID
  5
713
  8
0
  6
CONTINUOUS
 10
-522.55661818503199
 20
61.178762137489777
 30
0.0
 11
-522.17678055315093
 21
60.567377982963251
 31
0.0
 12
-520.80470349060181
 22
60.567377982963251
 32
0.0
 13
-520.80470349060181
 23
60.567377982963251
 33
0.0
210
0.0
220
0.0
230
1.0
  0
SOLID
  5
714
  8
0
  6
CONTINUOUS
 10
522.55661818503199
 20
61.178762137489777
 30
0.0
 11
521.38544660620175
 21
61.178762137489777
 31
0.0
 12
520.80470349060181
 22
60.567377982963251
 32
0.0
 13
520.80470349060181
 23
60.567377982963251
 33
0.0
210
0.0
220
0.0
230
-1.0
  0
SOLID
  5
715
  8
0
  6
CONTINUOUS
 10
-522.17678055315093
 20
60.567377982963251
 30
0.0
 11
-518.58940340392041
 21
56.790724439539311
 31
0.0
 12
-517.21732634137118
 22
56.790724439539311
 32
0.0
 13
-517.21732634137118
 23
56.790724439539311
 33
0.0
  0
SOLID
  5
716
  8
0
  6
CONTINUOUS
 10
522.17678055315093
 20
60.567377982963251
 30
0.0
 11
520.80470349060181
 21
60.567377982963251
 31
0.0
 12
517.21732634137118
 22
56.790724439539311
 32
0.0
 13
517.21732634137118
 23
56.790724439539311
 33
0.0
210
0.0
220
0.0
230
-1.0
  0
SOLID
  5
717
  8
0
  6
CONTINUOUS
 10
-518.58940340392041
 20
56.790724439539311
 30
0.0
 11
-517.86855540546867
 21
56.03184321953524
 31
0.0
 12
-516.33299740425116
 22
56.03184321953524
 32
0.0
 13
-516.33299740425116
 23
56.03184321953524
 33
0.0
  0
SOLID
  5
718
  8
0
  6
CONTINUOUS
 10
518.58940340392041
 20
56.790724439539311
 30
0.0
 11
517.21732634137118
 21
56.790724439539311
 31
0.0
 12
516.33299740425116
 22
56.03184321953524
 32
0.0
 13
516.33299740425116
 23
56.03184321953524
 33
0.0
210
0.0
220
0.0
230
-1.0
  0
SOLID
  5
719
  8
0
  6
CONTINUOUS
 10
-517.86855540546867
 20
56.03184321953524
 30
0.0
 11
-514.85982853723215
 21
53.449923505517383
 31
0.0
 12
-513.32427053601486
 22
53.449923505517383
 32
0.0
 13
-513.32427053601486
 23
53.449923505517383
 33
0.0
210
0.0
220
0.0
230
1.0
  0
SOLID
  5
71A
  8
0
  6
CONTINUOUS
 10
517.86855540546867
 20
56.03184321953524
 30
0.0
 11
516.33299740425116
 21
56.03184321953524
 31
0.0
 12
513.32427053601486
 22
53.449923505517383
 32
0.0
 13
513.32427053601486
 23
53.449923505517383
 33
0.0
210
0.0
220
0.0
230
-1.0
  0
SOLID
  5
71B
  8
0
  6
CONTINUOUS
 10
-514.85982853723215
 20
53.449923505517383
 30
0.0
 11
-513.97549960011224
 21
52.691042285513312
 31
0.0
 12
-512.53631069543815
 22
52.691042285513312
 32
0.0
 13
-512.53631069543815
 23
52.691042285513312
 33
0.0
210
0.0
220
0.0
230
1.0
  0
SOLID
  5
71C
  8
0
  6
CONTINUOUS
 10
514.85982853723215
 20
53.449923505517383
 30
0.0
 11
513.32427053601486
 21
53.449923505517383
 31
0.0
 12
512.53631069543815
 22
52.691042285513312
 32
0.0
 13
512.53631069543815
 23
52.691042285513312
 33
0.0
210
0.0
220
0.0
230
-1.0
  0
SOLID
  5
71D
  8
0
  6
CONTINUOUS
 10
-513.97549960011224
 20
52.691042285513312
 30
0.0
 11
-513.3435630543313
 21
52.079116958735277
 31
0.0
 12
-511.90093776720812
 22
52.079116958735277
 32
0.0
 13
-511.90093776720812
 23
52.079116958735277
 33
0.0
210
0.0
220
0.0
230
1.0
  0
SOLID
  5
71E
  8
0
  6
CONTINUOUS
 10
513.97549960011224
 20
52.691042285513312
 30
0.0
 11
512.53631069543815
 21
52.691042285513312
 31
0.0
 12
511.90093776720812
 22
52.079116958735277
 32
0.0
 13
511.90093776720812
 23
52.079116958735277
 33
0.0
210
0.0
220
0.0
230
-1.0
  0
SOLID
  5
71F
  8
0
  6
CONTINUOUS
 10
-513.3435630543313
 20
52.079116958735277
 30
0.0
 11
-512.35064184144494
 21
51.117638086027313
 31
0.0
 12
-511.08399644701979
 22
51.117638086027313
 32
0.0
 13
-511.08399644701979
 23
51.117638086027313
 33
0.0
210
0.0
220
0.0
230
1.0
  0
SOLID
  5
720
  8
0
  6
CONTINUOUS
 10
513.3435630543313
 20
52.079116958735277
 30
0.0
 11
511.90093776720812
 21
52.079116958735277
 31
0.0
 12
511.08399644701979
 22
51.117638086027313
 32
0.0
 13
511.08399644701979
 23
51.117638086027313
 33
0.0
210
0.0
220
0.0
230
-1.0
  0
SOLID
  5
721
  8
0
  6
CONTINUOUS
 10
-512.35064184144494
 20
51.117638086027313
 30
0.0
 11
-511.47627590886958
 21
50.045434089375043
 31
0.0
 12
-510.17297513037943
 22
50.045434089375043
 32
0.0
 13
-510.17297513037943
 23
50.045434089375043
 33
0.0
210
0.0
220
0.0
230
1.0
  0
SOLID
  5
722
  8
0
  6
CONTINUOUS
 10
512.35064184144494
 20
51.117638086027313
 30
0.0
 11
511.08399644701979
 21
51.117638086027313
 31
0.0
 12
510.17297513037943
 22
50.045434089375043
 32
0.0
 13
510.17297513037943
 23
50.045434089375043
 33
0.0
210
0.0
220
0.0
230
-1.0
  0
SOLID
  5
723
  8
0
  6
CONTINUOUS
 10
-511.47627590886958
 20
50.045434089375043
 30
0.0
 11
-510.85064182682748
 21
49.278241157656311
 31
0.0
 12
-509.61125191895638
 22
49.278241157656311
 32
0.0
 13
-509.61125191895638
 23
49.278241157656311
 33
0.0
210
0.0
220
0.0
230
1.0
  0
SOLID
  5
724
  8
0
  6
CONTINUOUS
 10
511.47627590886958
 20
50.045434089375043
 30
0.0
 11
510.17297513037943
 21
50.045434089375043
 31
0.0
 12
509.61125191895638
 22
49.278241157656311
 32
0.0
 13
509.61125191895638
 23
49.278241157656311
 33
0.0
210
0.0
220
0.0
230
-1.0
  0
SOLID
  5
725
  8
0
  6
CONTINUOUS
 10
-510.85064182682748
 20
49.278241157656311
 30
0.0
 11
-510.3427894410803
 21
48.536197279314379
 31
0.0
 12
-509.1628915513819
 22
48.536197279314379
 32
0.0
 13
-509.1628915513819
 23
48.536197279314379
 33
0.0
210
0.0
220
0.0
230
1.0
  0
SOLID
  5
726
  8
0
  6
CONTINUOUS
 10
510.85064182682748
 20
49.278241157656311
 30
0.0
 11
509.61125191895638
 21
49.278241157656311
 31
0.0
 12
509.1628915513819
 22
48.536197279314379
 32
0.0
 13
509.1628915513819
 23
48.536197279314379
 33
0.0
210
0.0
220
0.0
230
-1.0
  0
SOLID
  5
727
  8
0
  6
CONTINUOUS
 10
-510.3427894410803
 20
48.536197279314379
 30
0.0
 11
-510.09511135739717
 21
48.174304707861673
 31
0.0
 12
-509.07454257538399
 22
48.174304707861673
 32
0.0
 13
-509.07454257538399
 23
48.174304707861673
 33
0.0
210
0.0
220
0.0
230
1.0
  0
SOLID
  5
728
  8
0
  6
CONTINUOUS
 10
510.3427894410803
 20
48.536197279314379
 30
0.0
 11
509.1628915513819
 21
48.536197279314379
 31
0.0
 12
509.07454257538399
 22
48.174304707861673
 32
0.0
 13
509.07454257538399
 23
48.174304707861673
 33
0.0
210
0.0
220
0.0
230
-1.0
  0
SOLID
  5
729
  8
0
  6
CONTINUOUS
 10
-510.09511135739717
 20
48.174304707861673
 30
0.0
 11
-510.0442091438178
 21
47.965800503293273
 31
0.0
 12
-509.02364036180461
 22
47.965800503293273
 32
0.0
 13
-509.02364036180461
 23
47.965800503293273
 33
0.0
210
0.0
220
0.0
230
1.0
  0
SOLID
  5
72A
  8
0
  6
CONTINUOUS
 10
510.09511135739717
 20
48.174304707861673
 30
0.0
 11
509.07454257538399
 21
48.174304707861673
 31
0.0
 12
509.02364036180461
 22
47.965800503293273
 32
0.0
 13
509.02364036180461
 23
47.965800503293273
 33
0.0
210
0.0
220
0.0
230
-1.0
  0
SOLID
  5
72B
  8
0
  6
CONTINUOUS
 10
-510.0442091438178
 20
47.965800503293273
 30
0.0
 11
-510.01774958540977
 21
47.857417610072119
 31
0.0
 12
-509.02605274686482
 22
47.857417610072119
 32
0.0
 13
-509.02605274686482
 23
47.857417610072119
 33
0.0
210
0.0
220
0.0
230
1.0
  0
SOLID
  5
72C
  8
0
  6
CONTINUOUS
 10
510.0442091438178
 20
47.965800503293273
 30
0.0
 11
509.02364036180461
 21
47.965800503293273
 31
0.0
 12
509.02605274686482
 22
47.857417610072119
 32
0.0
 13
509.02605274686482
 23
47.857417610072119
 33
0.0
210
0.0
220
0.0
230
-1.0
  0
SOLID
  5
72D
  8
0
  6
CONTINUOUS
 10
-510.01774958540977
 20
47.857417610072119
 30
0.0
 11
-510.02500820101591
 21
47.531304763023982
 31
0.0
 12
-509.03331136247078
 22
47.531304763023982
 32
0.0
 13
-509.03331136247078
 23
47.531304763023982
 33
0.0
  0
SOLID
  5
72E
  8
0
  6
CONTINUOUS
 10
510.01774958540977
 20
47.857417610072119
 30
0.0
 11
509.02605274686482
 21
47.857417610072119
 31
0.0
 12
509.03331136247078
 22
47.531304763023982
 32
0.0
 13
509.03331136247078
 23
47.531304763023982
 33
0.0
210
0.0
220
0.0
230
-1.0
  0
SOLID
  5
72F
  8
0
  6
CONTINUOUS
 10
-510.02500820101591
 20
47.531304763023982
 30
0.0
 11
-510.04854199383362
 21
47.378797378606251
 31
0.0
 12
-509.03670586989529
 22
47.378797378606251
 32
0.0
 13
-509.03670586989529
 23
47.378797378606251
 33
0.0
210
0.0
220
0.0
230
1.0
  0
SOLID
  5
730
  8
0
  6
CONTINUOUS
 10
510.02500820101591
 20
47.531304763023982
 30
0.0
 11
509.03331136247078
 21
47.531304763023982
 31
0.0
 12
509.03670586989529
 22
47.378797378606251
 32
0.0
 13
509.03670586989529
 23
47.378797378606251
 33
0.0
210
0.0
220
0.0
230
-1.0
  0
SOLID
  5
731
  8
0
  6
CONTINUOUS
 10
-510.04854199383362
 20
47.378797378606251
 30
0.0
 11
-510.49990586115382
 21
44.45379827800874
 31
0.0
 12
-509.48806973721548
 22
44.45379827800874
 32
0.0
 13
-509.48806973721548
 23
44.45379827800874
 33
0.0
210
0.0
220
0.0
230
1.0
  0
SOLID
  5
732
  8
0
  6
CONTINUOUS
 10
510.04854199383362
 20
47.378797378606251
 30
0.0
 11
509.03670586989529
 21
47.378797378606251
 31
0.0
 12
509.48806973721548
 22
44.45379827800874
 32
0.0
 13
509.48806973721548
 23
44.45379827800874
 33
0.0
210
0.0
220
0.0
230
-1.0
  0
SOLID
  5
733
  8
0
  6
CONTINUOUS
 10
-510.49990586115382
 20
44.45379827800874
 30
0.0
 11
-510.50695908776811
 21
44.301290893591137
 31
0.0
 12
-509.51160353003331
 22
44.301290893591137
 32
0.0
 13
-509.51160353003331
 23
44.301290893591137
 33
0.0
  0
SOLID
  5
734
  8
0
  6
CONTINUOUS
 10
510.49990586115382
 20
44.45379827800874
 30
0.0
 11
509.48806973721548
 21
44.45379827800874
 31
0.0
 12
509.51160353003331
 22
44.301290893591137
 32
0.0
 13
509.51160353003331
 23
44.301290893591137
 33
0.0
210
0.0
220
0.0
230
-1.0
  0
SOLID
  5
735
  8
0
  6
CONTINUOUS
 10
-510.50695908776811
 20
44.301290893591137
 30
0.0
 11
-510.55378257093662
 21
43.288856820815411
 31
0.0
 12
-509.55842701320171
 22
43.288856820815411
 32
0.0
 13
-509.55842701320171
 23
43.288856820815411
 33
0.0
210
0.0
220
0.0
230
1.0
  0
SOLID
  5
736
  8
0
  6
CONTINUOUS
 10
510.50695908776811
 20
44.301290893591137
 30
0.0
 11
509.51160353003331
 21
44.301290893591137
 31
0.0
 12
509.55842701320171
 22
43.288856820815411
 32
0.0
 13
509.55842701320171
 23
43.288856820815411
 33
0.0
210
0.0
220
0.0
230
-1.0
  0
SOLID
  5
737
  8
0
  6
CONTINUOUS
 10
-510.55378257093662
 20
43.288856820815411
 30
0.0
 11
-510.55658691972621
 21
43.228220189911823
 31
0.0
 12
-509.548170371975
 22
43.228220189911823
 32
0.0
 13
-509.548170371975
 23
43.228220189911823
 33
0.0
210
0.0
220
0.0
230
1.0
  0
SOLID
  5
738
  8
0
  6
CONTINUOUS
 10
510.55378257093662
 20
43.288856820815411
 30
0.0
 11
509.55842701320171
 21
43.288856820815411
 31
0.0
 12
509.548170371975
 22
43.228220189911823
 32
0.0
 13
509.548170371975
 23
43.228220189911823
 33
0.0
210
0.0
220
0.0
230
-1.0
  0
SOLID
  5
739
  8
0
  6
CONTINUOUS
 10
-510.55658691972621
 20
43.228220189911823
 30
0.0
 11
-510.39780914552688
 21
42.289535772956278
 31
0.0
 12
-509.38939259777578
 22
42.289535772956278
 32
0.0
 13
-509.38939259777578
 23
42.289535772956278
 33
0.0
210
0.0
220
0.0
230
1.0
  0
SOLID
  5
73A
  8
0
  6
CONTINUOUS
 10
510.55658691972621
 20
43.228220189911823
 30
0.0
 11
509.548170371975
 21
43.228220189911823
 31
0.0
 12
509.38939259777578
 22
42.289535772956278
 32
0.0
 13
509.38939259777578
 23
42.289535772956278
 33
0.0
210
0.0
220
0.0
230
-1.0
  0
SOLID
  5
73B
  8
0
  6
CONTINUOUS
 10
-510.39780914552688
 20
42.289535772956278
 30
0.0
 11
-510.35196631157891
 21
42.01851576355584
 31
0.0
 12
-509.28072183540968
 22
42.01851576355584
 32
0.0
 13
-509.28072183540968
 23
42.01851576355584
 33
0.0
210
0.0
220
0.0
230
1.0
  0
SOLID
  5
73C
  8
0
  6
CONTINUOUS
 10
510.39780914552688
 20
42.289535772956278
 30
0.0
 11
509.38939259777578
 21
42.289535772956278
 31
0.0
 12
509.28072183540968
 22
42.01851576355584
 32
0.0
 13
509.28072183540968
 23
42.01851576355584
 33
0.0
210
0.0
220
0.0
230
-1.0
  0
SOLID
  5
73D
  8
0
  6
CONTINUOUS
 10
-510.35196631157891
 20
42.01851576355584
 30
0.0
 11
-510.08344048155158
 21
41.348824382050552
 31
0.0
 12
-509.01219600538241
 22
41.348824382050552
 32
0.0
 13
-509.01219600538241
 23
41.348824382050552
 33
0.0
210
0.0
220
0.0
230
1.0
  0
SOLID
  5
73E
  8
0
  6
CONTINUOUS
 10
510.35196631157891
 20
42.01851576355584
 30
0.0
 11
509.28072183540968
 21
42.01851576355584
 31
0.0
 12
509.01219600538241
 22
41.348824382050552
 32
0.0
 13
509.01219600538241
 23
41.348824382050552
 33
0.0
210
0.0
220
0.0
230
-1.0
  0
SOLID
  5
73F
  8
0
  6
CONTINUOUS
 10
-510.08344048155158
 20
41.348824382050552
 30
0.0
 11
-509.89535991026059
 21
40.879759869301651
 31
0.0
 12
-508.7630672582664
 22
40.879759869301651
 32
0.0
 13
-508.7630672582664
 23
40.879759869301651
 33
0.0
210
0.0
220
0.0
230
1.0
  0
SOLID
  5
740
  8
0
  6
CONTINUOUS
 10
510.08344048155158
 20
41.348824382050552
 30
0.0
 11
509.01219600538241
 21
41.348824382050552
 31
0.0
 12
508.7630672582664
 22
40.879759869301651
 32
0.0
 13
508.7630672582664
 23
40.879759869301651
 33
0.0
210
0.0
220
0.0
230
-1.0
  0
SOLID
  5
741
  8
0
  6
CONTINUOUS
 10
-419.50000000000011
 20
110.57976337348791
 30
0.0
 11
-419.50000000000011
 21
39.079763373487701
 31
0.0
 12
-418.50000000000011
 22
39.079763373487701
 32
0.0
 13
-418.50000000000011
 23
39.079763373487701
 33
0.0
210
0.0
220
0.0
230
1.0
  0
SOLID
  5
742
  8
0
  6
CONTINUOUS
 10
419.50000000000011
 20
110.57976337348791
 30
0.0
 11
418.50000000000011
 21
110.57976337348791
 31
0.0
 12
418.50000000000011
 22
39.079763373487701
 32
0.0
 13
418.50000000000011
 23
39.079763373487701
 33
0.0
210
0.0
220
0.0
230
-1.0
  0
SOLID
  5
743
  8
0
  6
CONTINUOUS
 10
-419.50000000000011
 20
39.079763373487701
 30
0.0
 11
-419.5596298039942
 21
38.626830044558453
 31
0.0
 12
-418.5596298039942
 22
38.626830044558453
 32
0.0
 13
-418.5596298039942
 23
38.626830044558453
 33
0.0
210
0.0
220
0.0
230
1.0
  0
SOLID
  5
744
  8
0
  6
CONTINUOUS
 10
419.50000000000011
 20
39.079763373487701
 30
0.0
 11
418.50000000000011
 21
39.079763373487701
 31
0.0
 12
418.5596298039942
 22
38.626830044558453
 32
0.0
 13
418.5596298039942
 23
38.626830044558453
 33
0.0
210
0.0
220
0.0
230
-1.0
  0
SOLID
  5
745
  8
0
  6
CONTINUOUS
 10
-509.89535991026059
 20
40.879759869301651
 30
0.0
 11
-508.66395194822587
 21
38.561240700424648
 31
0.0
 12
-507.53165929623179
 22
38.561240700424648
 32
0.0
 13
-507.53165929623179
 23
38.561240700424648
 33
0.0
210
0.0
220
0.0
230
1.0
  0
SOLID
  5
746
  8
0
  6
CONTINUOUS
 10
509.89535991026059
 20
40.879759869301651
 30
0.0
 11
508.7630672582664
 21
40.879759869301651
 31
0.0
 12
507.53165929623179
 22
38.561240700424648
 32
0.0
 13
507.53165929623179
 23
38.561240700424648
 33
0.0
210
0.0
220
0.0
230
-1.0
  0
SOLID
  5
747
  8
0
  6
CONTINUOUS
 10
-419.5596298039942
 20
38.626830044558453
 30
0.0
 11
-419.66683616267619
 21
38.368010999455826
 31
0.0
 12
-418.5937039777051
 22
38.368010999455826
 32
0.0
 13
-418.5937039777051
 23
38.368010999455826
 33
0.0
  0
SOLID
  5
748
  8
0
  6
CONTINUOUS
 10
419.5596298039942
 20
38.626830044558453
 30
0.0
 11
418.5596298039942
 21
38.626830044558453
 31
0.0
 12
418.5937039777051
 22
38.368010999455826
 32
0.0
 13
418.5937039777051
 23
38.368010999455826
 33
0.0
210
0.0
220
0.0
230
-1.0
  0
SOLID
  5
749
  8
0
  6
CONTINUOUS
 10
-419.66683616267619
 20
38.368010999455826
 30
0.0
 11
-419.73445554337718
 21
38.2047633734879
 31
0.0
 12
-418.66132335840621
 22
38.2047633734879
 32
0.0
 13
-418.66132335840621
 23
38.2047633734879
 33
0.0
210
0.0
220
0.0
230
1.0
  0
SOLID
  5
74A
  8
0
  6
CONTINUOUS
 10
419.66683616267619
 20
38.368010999455826
 30
0.0
 11
418.5937039777051
 21
38.368010999455826
 31
0.0
 12
418.66132335840621
 22
38.2047633734879
 32
0.0
 13
418.66132335840621
 23
38.2047633734879
 33
0.0
210
0.0
220
0.0
230
-1.0
  0
SOLID
  5
74B
  8
0
  6
CONTINUOUS
 10
-508.66395194822587
 20
38.561240700424648
 30
0.0
 11
-508.33721029220823
 21
37.946045073870337
 31
0.0
 12
-507.15865424085342
 22
37.946045073870337
 32
0.0
 13
-507.15865424085342
 23
37.946045073870337
 33
0.0
210
0.0
220
0.0
230
1.0
  0
SOLID
  5
74C
  8
0
  6
CONTINUOUS
 10
508.66395194822587
 20
38.561240700424648
 30
0.0
 11
507.53165929623179
 21
38.561240700424648
 31
0.0
 12
507.15865424085342
 22
37.946045073870337
 32
0.0
 13
507.15865424085342
 23
37.946045073870337
 33
0.0
210
0.0
220
0.0
230
-1.0
  0
SOLID
  5
74D
  8
0
  6
CONTINUOUS
 10
-419.73445554337718
 20
38.2047633734879
 30
0.0
 11
-420.01256313292339
 21
37.842326506411567
 31
0.0
 12
-418.81144962425321
 22
37.842326506411567
 32
0.0
 13
-418.81144962425321
 23
37.842326506411567
 33
0.0
210
0.0
220
0.0
230
1.0
  0
SOLID
  5
74E
  8
0
  6
CONTINUOUS
 10
419.73445554337718
 20
38.2047633734879
 30
0.0
 11
418.66132335840621
 21
38.2047633734879
 31
0.0
 12
418.81144962425321
 22
37.842326506411567
 32
0.0
 13
418.81144962425321
 23
37.842326506411567
 33
0.0
210
0.0
220
0.0
230
-1.0
  0
SOLID
  5
74F
  8
0
  6
CONTINUOUS
 10
-508.33721029220823
 20
37.946045073870337
 30
0.0
 11
-508.2542447748541
 21
37.789835963427912
 31
0.0
 12
-506.99357446936392
 22
37.789835963427912
 32
0.0
 13
-506.99357446936392
 23
37.789835963427912
 33
0.0
210
0.0
220
0.0
230
1.0
  0
SOLID
  5
750
  8
0
  6
CONTINUOUS
 10
508.33721029220823
 20
37.946045073870337
 30
0.0
 11
507.15865424085342
 21
37.946045073870337
 31
0.0
 12
506.99357446936392
 22
37.789835963427912
 32
0.0
 13
506.99357446936392
 23
37.789835963427912
 33
0.0
210
0.0
220
0.0
230
-1.0
  0
SOLID
  5
751
  8
0
  6
CONTINUOUS
 10
-420.01256313292339
 20
37.842326506411567
 30
0.0
 11
-420.19183889811711
 21
37.704763373487879
 31
0.0
 12
-418.86843013959282
 22
37.704763373487879
 32
0.0
 13
-418.86843013959282
 23
37.704763373487879
 33
0.0
210
0.0
220
0.0
230
1.0
  0
SOLID
  5
752
  8
0
  6
CONTINUOUS
 10
420.01256313292339
 20
37.842326506411567
 30
0.0
 11
418.81144962425321
 21
37.842326506411567
 31
0.0
 12
418.86843013959282
 22
37.704763373487879
 32
0.0
 13
418.86843013959282
 23
37.704763373487879
 33
0.0
210
0.0
220
0.0
230
-1.0
  0
SOLID
  5
753
  8
0
  6
CONTINUOUS
 10
-508.2542447748541
 20
37.789835963427912
 30
0.0
 11
-508.18382826771182
 21
37.686128698655907
 31
0.0
 12
-506.88397797065858
 22
37.686128698655907
 32
0.0
 13
-506.88397797065858
 23
37.686128698655907
 33
0.0
210
0.0
220
0.0
230
1.0
  0
SOLID
  5
754
  8
0
  6
CONTINUOUS
 10
508.2542447748541
 20
37.789835963427912
 30
0.0
 11
506.99357446936392
 21
37.789835963427912
 31
0.0
 12
506.88397797065858
 22
37.686128698655907
 32
0.0
 13
506.88397797065858
 23
37.686128698655907
 33
0.0
210
0.0
220
0.0
230
-1.0
  0
SOLID
  5
755
  8
0
  6
CONTINUOUS
 10
-420.19183889811711
 20
37.704763373487879
 30
0.0
 11
-420.37499999999977
 21
37.564218916865343
 31
0.0
 12
-418.97627369417012
 22
37.564218916865343
 32
0.0
 13
-418.97627369417012
 23
37.564218916865343
 33
0.0
210
0.0
220
0.0
230
1.0
  0
SOLID
  5
756
  8
0
  6
CONTINUOUS
 10
420.19183889811711
 20
37.704763373487879
 30
0.0
 11
418.86843013959282
 21
37.704763373487879
 31
0.0
 12
418.97627369417012
 22
37.564218916865343
 32
0.0
 13
418.97627369417012
 23
37.564218916865343
 33
0.0
210
0.0
220
0.0
230
-1.0
  0
SOLID
  5
757
  8
0
  6
CONTINUOUS
 10
-508.18382826771182
 20
37.686128698655907
 30
0.0
 11
-508.0515329034863
 21
37.491288157387551
 31
0.0
 12
-506.5598780802066
 22
37.491288157387551
 32
0.0
 13
-506.5598780802066
 23
37.491288157387551
 33
0.0
210
0.0
220
0.0
230
1.0
  0
SOLID
  5
758
  8
0
  6
CONTINUOUS
 10
508.18382826771182
 20
37.686128698655907
 30
0.0
 11
506.88397797065858
 21
37.686128698655907
 31
0.0
 12
506.5598780802066
 22
37.491288157387551
 32
0.0
 13
506.5598780802066
 23
37.491288157387551
 33
0.0
210
0.0
220
0.0
230
-1.0
  0
SOLID
  5
759
  8
0
  6
CONTINUOUS
 10
-420.37499999999977
 20
37.564218916865343
 30
0.0
 11
-420.7970666710703
 21
37.389393177482312
 31
0.0
 12
-419.11042220219213
 22
37.389393177482312
 32
0.0
 13
-419.11042220219213
 23
37.389393177482312
 33
0.0
210
0.0
220
0.0
230
1.0
  0
SOLID
  5
75A
  8
0
  6
CONTINUOUS
 10
420.37499999999977
 20
37.564218916865343
 30
0.0
 11
418.97627369417012
 21
37.564218916865343
 31
0.0
 12
419.11042220219213
 22
37.389393177482312
 32
0.0
 13
419.11042220219213
 23
37.389393177482312
 33
0.0
210
0.0
220
0.0
230
-1.0
  0
SOLID
  5
75B
  8
0
  6
CONTINUOUS
 10
-420.7970666710703
 20
37.389393177482312
 30
0.0
 11
-420.93965142947502
 21
37.370621537920407
 31
0.0
 12
-419.1248261878365
 22
37.370621537920407
 32
0.0
 13
-419.1248261878365
 23
37.370621537920407
 33
0.0
210
0.0
220
0.0
230
1.0
  0
SOLID
  5
75C
  8
0
  6
CONTINUOUS
 10
420.7970666710703
 20
37.389393177482312
 30
0.0
 11
419.11042220219213
 21
37.389393177482312
 31
0.0
 12
419.1248261878365
 22
37.370621537920407
 32
0.0
 13
419.1248261878365
 23
37.370621537920407
 33
0.0
210
0.0
220
0.0
230
-1.0
  0
SOLID
  5
75D
  8
0
  6
CONTINUOUS
 10
-508.0515329034863
 20
37.491288157387551
 30
0.0
 11
-507.9696011131702
 21
37.370621537920407
 31
0.0
 12
-506.20148842848778
 22
37.370621537920407
 32
0.0
 13
-506.20148842848778
 23
37.370621537920407
 33
0.0
210
0.0
220
0.0
230
1.0
  0
SOLID
  5
75E
  8
0
  6
CONTINUOUS
 10
508.0515329034863
 20
37.491288157387551
 30
0.0
 11
506.5598780802066
 21
37.491288157387551
 31
0.0
 12
506.20148842848778
 22
37.370621537920407
 32
0.0
 13
506.20148842848778
 23
37.370621537920407
 33
0.0
210
0.0
220
0.0
230
-1.0
  0
SOLID
  5
75F
  8
0
  6
CONTINUOUS
 10
-420.93965142947502
 20
37.370621537920407
 30
0.0
 11
-421.2499999999996
 21
37.329763373488099
 31
0.0
 12
-419.15617776008469
 22
37.329763373488099
 32
0.0
 13
-419.15617776008469
 23
37.329763373488099
 33
0.0
210
0.0
220
0.0
230
1.0
  0
SOLID
  5
760
  8
0
  6
CONTINUOUS
 10
420.93965142947502
 20
37.370621537920407
 30
0.0
 11
419.1248261878365
 21
37.370621537920407
 31
0.0
 12
419.15617776008469
 22
37.329763373488099
 32
0.0
 13
419.15617776008469
 23
37.329763373488099
 33
0.0
210
0.0
220
0.0
230
-1.0
  0
SOLID
  5
761
  8
0
  6
CONTINUOUS
 10
-507.9696011131702
 20
37.370621537920407
 30
0.0
 11
-507.9418587054044
 21
37.329763373488099
 31
0.0
 12
-421.2499999999996
 22
37.329763373488099
 32
0.0
 13
-421.2499999999996
 23
37.329763373488099
 33
0.0
210
0.0
220
0.0
230
1.0
  0
SOLID
  5
762
  8
0
  6
CONTINUOUS
 10
507.9696011131702
 20
37.370621537920407
 30
0.0
 11
506.20148842848778
 21
37.370621537920407
 31
0.0
 12
421.2499999999996
 22
37.329763373488099
 32
0.0
 13
421.2499999999996
 23
37.329763373488099
 33
0.0
210
0.0
220
0.0
230
-1.0
  0
SOLID
  5
763
  8
0
  6
CONTINUOUS
 10
-507.9418587054044
 20
37.329763373488099
 30
0.0
 11
-507.92043150051859
 21
37.29820604551756
 31
0.0
 12
-419.18039254950497
 22
37.29820604551756
 32
0.0
 13
-419.18039254950497
 23
37.29820604551756
 33
0.0
  0
SOLID
  5
764
  8
0
  6
CONTINUOUS
 10
507.9418587054044
 20
37.329763373488099
 30
0.0
 11
419.15617776008469
 21
37.329763373488099
 31
0.0
 12
419.18039254950497
 22
37.29820604551756
 32
0.0
 13
419.18039254950497
 23
37.29820604551756
 33
0.0
210
0.0
220
0.0
230
-1.0
  0
SOLID
  5
765
  8
0
  6
CONTINUOUS
 10
-507.92043150051859
 20
37.29820604551756
 30
0.0
 11
-507.74818966114299
 21
37.135219725224971
 31
0.0
 12
-419.30545635173689
 22
37.135219725224971
 32
0.0
 13
-419.30545635173689
 23
37.135219725224971
 33
0.0
  0
SOLID
  5
766
  8
0
  6
CONTINUOUS
 10
507.92043150051859
 20
37.29820604551756
 30
0.0
 11
419.18039254950497
 21
37.29820604551756
 31
0.0
 12
419.30545635173689
 22
37.135219725224971
 32
0.0
 13
419.30545635173689
 23
37.135219725224971
 33
0.0
210
0.0
220
0.0
230
-1.0
  0
SOLID
  5
767
  8
0
  6
CONTINUOUS
 10
-507.74818966114299
 20
37.135219725224971
 30
0.0
 11
-507.48879736164082
 21
36.889766027323439
 31
0.0
 12
-419.62533783869992
 22
36.889766027323439
 32
0.0
 13
-419.62533783869992
 23
36.889766027323439
 33
0.0
210
0.0
220
0.0
230
1.0
  0
SOLID
  5
768
  8
0
  6
CONTINUOUS
 10
507.74818966114299
 20
37.135219725224971
 30
0.0
 11
419.30545635173689
 21
37.135219725224971
 31
0.0
 12
419.62533783869992
 22
36.889766027323439
 32
0.0
 13
419.62533783869992
 23
36.889766027323439
 33
0.0
210
0.0
220
0.0
230
-1.0
  0
SOLID
  5
769
  8
0
  6
CONTINUOUS
 10
-507.48879736164082
 20
36.889766027323439
 30
0.0
 11
-507.17013354313838
 21
36.698193513080859
 31
0.0
 12
-419.87499999999977
 22
36.698193513080859
 32
0.0
 13
-419.87499999999977
 23
36.698193513080859
 33
0.0
210
0.0
220
0.0
230
1.0
  0
SOLID
  5
76A
  8
0
  6
CONTINUOUS
 10
507.48879736164082
 20
36.889766027323439
 30
0.0
 11
419.62533783869992
 21
36.889766027323439
 31
0.0
 12
419.87499999999977
 22
36.698193513080859
 32
0.0
 13
419.87499999999977
 23
36.698193513080859
 33
0.0
210
0.0
220
0.0
230
-1.0
  0
SOLID
  5
76B
  8
0
  6
CONTINUOUS
 10
-507.17013354313838
 20
36.698193513080859
 30
0.0
 11
-506.97949753378759
 21
36.583588033901677
 31
0.0
 12
-420.15168210215643
 22
36.583588033901677
 32
0.0
 13
-420.15168210215643
 23
36.583588033901677
 33
0.0
210
0.0
220
0.0
230
1.0
  0
SOLID
  5
76C
  8
0
  6
CONTINUOUS
 10
507.17013354313838
 20
36.698193513080859
 30
0.0
 11
419.87499999999977
 21
36.698193513080859
 31
0.0
 12
420.15168210215643
 22
36.583588033901677
 32
0.0
 13
420.15168210215643
 23
36.583588033901677
 33
0.0
210
0.0
220
0.0
230
-1.0
  0
SOLID
  5
76D
  8
0
  6
CONTINUOUS
 10
-506.97949753378759
 20
36.583588033901677
 30
0.0
 11
-506.50392611260872
 21
36.423467351193104
 31
0.0
 12
-420.53824762596781
 22
36.423467351193104
 32
0.0
 13
-420.53824762596781
 23
36.423467351193104
 33
0.0
  0
SOLID
  5
76E
  8
0
  6
CONTINUOUS
 10
506.97949753378759
 20
36.583588033901677
 30
0.0
 11
420.15168210215643
 21
36.583588033901677
 31
0.0
 12
420.53824762596781
 22
36.423467351193104
 32
0.0
 13
420.53824762596781
 23
36.423467351193104
 33
0.0
210
0.0
220
0.0
230
-1.0
  0
SOLID
  5
76F
  8
0
  6
CONTINUOUS
 10
-506.50392611260872
 20
36.423467351193104
 30
0.0
 11
-506.41631379537222
 21
36.393969060453038
 31
0.0
 12
-420.7623093891753
 22
36.393969060453038
 32
0.0
 13
-420.7623093891753
 23
36.393969060453038
 33
0.0
210
0.0
220
0.0
230
1.0
  0
SOLID
  5
770
  8
0
  6
CONTINUOUS
 10
506.50392611260872
 20
36.423467351193104
 30
0.0
 11
420.53824762596781
 21
36.423467351193104
 31
0.0
 12
420.7623093891753
 22
36.393969060453038
 32
0.0
 13
420.7623093891753
 23
36.393969060453038
 33
0.0
210
0.0
220
0.0
230
-1.0
  0
SOLID
  5
771
  8
0
  6
CONTINUOUS
 10
-506.41631379537222
 20
36.393969060453038
 30
0.0
 11
-505.82554403644019
 21
36.329763373488191
 31
0.0
 12
-421.2499999999996
 22
36.329763373488191
 32
0.0
 13
-421.2499999999996
 23
36.329763373488191
 33
0.0
210
0.0
220
0.0
230
1.0
  0
SOLID
  5
772
  8
0
  6
CONTINUOUS
 10
506.41631379537222
 20
36.393969060453038
 30
0.0
 11
420.7623093891753
 21
36.393969060453038
 31
0.0
 12
421.2499999999996
 22
36.329763373488191
 32
0.0
 13
421.2499999999996
 23
36.329763373488191
 33
0.0
210
0.0
220
0.0
230
-1.0
  0
LINE
  5
773
  8
0
  6
CONTINUOUS
 10
-535.91130677723982
 20
129.2444533974018
 30
0.0
 11
-549.14149628925077
 21
129.19785332656559
 31
0.0
  0
LINE
  5
774
  8
0
  6
CONTINUOUS
 10
-535.55734409753268
 20
129.19785332656559
 30
0.0
 11
-535.91130677723982
 21
129.2444533974018
 31
0.0
  0
LINE
  5
775
  8
0
  6
CONTINUOUS
 10
-549.14149628925077
 20
129.19785332656559
 30
0.0
 11
-549.17753385466028
 21
129.18482359340771
 31
0.0
  0
LINE
  5
776
  8
0
  6
CONTINUOUS
 10
-535.55734409753268
 20
129.19785332656559
 30
0.0
 11
-535.45837344831045
 21
129.18482359340771
 31
0.0
  0
LINE
  5
777
  8
0
  6
CONTINUOUS
 10
-549.17753385466028
 20
129.18482359340771
 30
0.0
 11
-549.52129083748991
 21
129.0605349044645
 31
0.0
  0
LINE
  5
778
  8
0
  6
CONTINUOUS
 10
-535.45837344831045
 20
129.18482359340771
 30
0.0
 11
-535.15831400981426
 21
129.0605349044645
 31
0.0
  0
LINE
  5
779
  8
0
  6
CONTINUOUS
 10
-549.52129083748991
 20
129.0605349044645
 30
0.0
 11
-549.59872610085245
 21
129.00999785402459
 31
0.0
  0
LINE
  5
77A
  8
0
  6
CONTINUOUS
 10
-535.15831400981426
 20
129.0605349044645
 30
0.0
 11
-535.03630677723982
 21
129.00999785402459
 31
0.0
  0
LINE
  5
77B
  8
0
  6
CONTINUOUS
 10
-549.59872610085245
 20
129.00999785402459
 30
0.0
 11
-549.8594939586618
 21
128.839811329036
 31
0.0
  0
LINE
  5
77C
  8
0
  6
CONTINUOUS
 10
-535.03630677723982
 20
129.00999785402459
 30
0.0
 11
-534.81451537975909
 21
128.839811329036
 31
0.0
  0
LINE
  5
77D
  8
0
  6
CONTINUOUS
 10
-549.8594939586618
 20
128.839811329036
 30
0.0
 11
-549.96233088082897
 21
128.73189026447821
 31
0.0
  0
LINE
  5
77E
  8
0
  6
CONTINUOUS
 10
-534.81451537975909
 20
128.839811329036
 30
0.0
 11
-534.67386991016326
 21
128.73189026447821
 31
0.0
  0
LINE
  5
77F
  8
0
  6
CONTINUOUS
 10
-549.96233088082897
 20
128.73189026447821
 30
0.0
 11
-550.13809389344885
 21
128.54743772513669
 31
0.0
  0
LINE
  5
780
  8
0
  6
CONTINUOUS
 10
-534.67386991016326
 20
128.73189026447821
 30
0.0
 11
-534.53233449872539
 21
128.54743772513669
 31
0.0
  0
LINE
  5
781
  8
0
  6
CONTINUOUS
 10
-550.13809389344885
 20
128.54743772513669
 30
0.0
 11
-550.24237536863018
 21
128.3694533974018
 31
0.0
  0
LINE
  5
782
  8
0
  6
CONTINUOUS
 10
-534.53233449872539
 20
128.54743772513669
 30
0.0
 11
-534.39576232061711
 21
128.3694533974018
 31
0.0
  0
LINE
  5
783
  8
0
  6
CONTINUOUS
 10
-550.24237536863018
 20
128.3694533974018
 30
0.0
 11
-550.31561318997956
 21
128.2444533974018
 31
0.0
  0
LINE
  5
784
  8
0
  6
CONTINUOUS
 10
-534.39576232061711
 20
128.3694533974018
 30
0.0
 11
-534.34398562532044
 21
128.2444533974018
 31
0.0
  0
LINE
  5
785
  8
0
  6
CONTINUOUS
 10
-534.34398562532044
 20
128.2444533974018
 30
0.0
 11
-534.33571317617088
 21
128.22448193847089
 31
0.0
  0
LINE
  5
786
  8
0
  6
CONTINUOUS
 10
-550.31561318997956
 20
128.2444533974018
 30
0.0
 11
-550.3273145191099
 21
128.22448193847089
 31
0.0
  0
LINE
  5
787
  8
0
  6
CONTINUOUS
 10
-538.56288521628255
 20
128.22448193847089
 30
0.0
 11
-535.71719249341299
 21
128.21889776711859
 31
0.0
  0
LINE
  5
788
  8
0
  6
CONTINUOUS
 10
-534.33571317617088
 20
128.22448193847089
 30
0.0
 11
-534.33340013666214
 21
128.21889776711859
 31
0.0
  0
LINE
  5
789
  8
0
  6
CONTINUOUS
 10
-550.3273145191099
 20
128.22448193847089
 30
0.0
 11
-550.34225318277049
 21
128.19898509922601
 31
0.0
  0
LINE
  5
78A
  8
0
  6
CONTINUOUS
 10
-548.91226247665202
 20
128.22448193847089
 30
0.0
 11
-548.96339243146588
 21
128.19898509922601
 31
0.0
  0
LINE
  5
78B
  8
0
  6
CONTINUOUS
 10
-550.34225318277049
 20
128.19898509922601
 30
0.0
 11
-550.37621246009144
 21
128.07103536810101
 31
0.0
  0
LINE
  5
78C
  8
0
  6
CONTINUOUS
 10
-548.96339243146588
 20
128.19898509922601
 30
0.0
 11
-549.21997576354283
 21
128.07103536810101
 31
0.0
  0
LINE
  5
78D
  8
0
  6
CONTINUOUS
 10
-535.71719249341299
 20
128.21889776711859
 30
0.0
 11
-535.38097669134982
 21
128.0247834832918
 31
0.0
  0
LINE
  5
78E
  8
0
  6
CONTINUOUS
 10
-534.33340013666214
 20
128.21889776711859
 30
0.0
 11
-534.25299536765078
 21
128.0247834832918
 31
0.0
  0
LINE
  5
78F
  8
0
  6
CONTINUOUS
 10
-535.38097669134982
 20
128.0247834832918
 30
0.0
 11
-535.33629165288426
 21
127.9473867263312
 31
0.0
  0
LINE
  5
790
  8
0
  6
CONTINUOUS
 10
-534.25299536765078
 20
128.0247834832918
 30
0.0
 11
-534.2209365812339
 21
127.9473867263312
 31
0.0
  0
LINE
  5
791
  8
0
  6
CONTINUOUS
 10
-550.37621246009144
 20
128.07103536810101
 30
0.0
 11
-550.44910491155156
 21
127.79639555532501
 31
0.0
  0
LINE
  5
792
  8
0
  6
CONTINUOUS
 10
-549.21997576354283
 20
128.07103536810101
 30
0.0
 11
-549.42687257387524
 21
127.79639555532501
 31
0.0
  0
LINE
  5
793
  8
0
  6
CONTINUOUS
 10
-535.33629165288426
 20
127.9473867263312
 30
0.0
 11
-535.18686240752299
 21
127.6885676812287
 31
0.0
  0
LINE
  5
794
  8
0
  6
CONTINUOUS
 10
-534.2209365812339
 20
127.9473867263312
 30
0.0
 11
-534.18686240752299
 21
127.6885676812287
 31
0.0
  0
LINE
  5
795
  8
0
  6
CONTINUOUS
 10
-550.44910491155156
 20
127.79639555532501
 30
0.0
 11
-550.49892390537661
 21
127.6086905342609
 31
0.0
  0
LINE
  5
796
  8
0
  6
CONTINUOUS
 10
-549.42687257387524
 20
127.79639555532501
 30
0.0
 11
-549.46197580698458
 21
127.6086905342609
 31
0.0
  0
LINE
  5
797
  8
0
  6
CONTINUOUS
 10
-535.18686240752299
 20
127.6885676812287
 30
0.0
 11
-535.1613067772397
 21
127.4944533974018
 31
0.0
  0
LINE
  5
798
  8
0
  6
CONTINUOUS
 10
-534.18686240752299
 20
127.6885676812287
 30
0.0
 11
-534.16130677723982
 21
127.4944533974018
 31
0.0
  0
LINE
  5
799
  8
0
  6
CONTINUOUS
 10
-535.1613067772397
 20
127.4944533974018
 30
0.0
 11
-535.1613067772397
 21
124.8337292962775
 31
0.0
  0
LINE
  5
79A
  8
0
  6
CONTINUOUS
 10
-534.16130677723982
 20
127.4944533974018
 30
0.0
 11
-534.16130677723982
 21
124.8337292962775
 31
0.0
  0
LINE
  5
79B
  8
0
  6
CONTINUOUS
 10
-550.49892390537661
 20
127.6086905342609
 30
0.0
 11
-552.45700361319132
 21
117.0316774816166
 31
0.0
  0
LINE
  5
79C
  8
0
  6
CONTINUOUS
 10
-549.46197580698458
 20
127.6086905342609
 30
0.0
 11
-551.44001215722722
 21
117.0316774816166
 31
0.0
  0
LINE
  5
79D
  8
0
  6
CONTINUOUS
 10
-552.45700361319132
 20
117.0316774816166
 30
0.0
 11
-552.49612532181641
 21
116.8203526713356
 31
0.0
  0
LINE
  5
79E
  8
0
  6
CONTINUOUS
 10
-551.44001215722722
 20
117.0316774816166
 30
0.0
 11
-551.46599294923362
 21
116.8203526713356
 31
0.0
  0
LINE
  5
79F
  8
0
  6
CONTINUOUS
 10
-552.49612532181641
 20
116.8203526713356
 30
0.0
 11
-552.53435155780096
 21
116.2232186542054
 31
0.0
  0
LINE
  5
7A0
  8
0
  6
CONTINUOUS
 10
-551.46599294923362
 20
116.8203526713356
 30
0.0
 11
-551.5394060741686
 21
116.2232186542054
 31
0.0
  0
LINE
  5
7A1
  8
0
  6
CONTINUOUS
 10
-552.53435155780096
 20
116.2232186542054
 30
0.0
 11
-552.53788317976114
 21
116.1680510041963
 31
0.0
  0
LINE
  5
7A2
  8
0
  6
CONTINUOUS
 10
-551.5394060741686
 20
116.2232186542054
 30
0.0
 11
-551.52969062408465
 21
116.1680510041963
 31
0.0
  0
LINE
  5
7A3
  8
0
  6
CONTINUOUS
 10
-552.53788317976114
 20
116.1680510041963
 30
0.0
 11
-552.47545664579013
 21
115.8135717832035
 31
0.0
  0
LINE
  5
7A4
  8
0
  6
CONTINUOUS
 10
-551.52969062408465
 20
116.1680510041963
 30
0.0
 11
-551.46726409011353
 21
115.8135717832035
 31
0.0
  0
LINE
  5
7A5
  8
0
  6
CONTINUOUS
 10
-552.47545664579013
 20
115.8135717832035
 30
0.0
 11
-552.42451720481745
 21
115.5243202069076
 31
0.0
  0
LINE
  5
7A6
  8
0
  6
CONTINUOUS
 10
-551.46726409011353
 20
115.8135717832035
 30
0.0
 11
-551.34066170266283
 21
115.5243202069076
 31
0.0
  0
LINE
  5
7A7
  8
0
  6
CONTINUOUS
 10
-552.42451720481745
 20
115.5243202069076
 30
0.0
 11
-552.38433808171806
 21
115.43252197999681
 31
0.0
  0
LINE
  5
7A8
  8
0
  6
CONTINUOUS
 10
-551.34066170266283
 20
115.5243202069076
 30
0.0
 11
-551.30048257956355
 21
115.43252197999681
 31
0.0
  0
LINE
  5
7A9
  8
0
  6
CONTINUOUS
 10
-552.38433808171806
 20
115.43252197999681
 30
0.0
 11
-552.23949548015958
 21
115.1015965396536
 31
0.0
  0
LINE
  5
7AA
  8
0
  6
CONTINUOUS
 10
-551.30048257956355
 20
115.43252197999681
 30
0.0
 11
-551.04848381425131
 21
115.1015965396536
 31
0.0
  0
LINE
  5
7AB
  8
0
  6
CONTINUOUS
 10
-552.23949548015958
 20
115.1015965396536
 30
0.0
 11
-552.16243197395318
 21
114.92552765901161
 31
0.0
  0
LINE
  5
7AC
  8
0
  6
CONTINUOUS
 10
-551.04848381425131
 20
115.1015965396536
 30
0.0
 11
-550.77368785884744
 21
114.92552765901161
 31
0.0
  0
LINE
  5
7AD
  8
0
  6
CONTINUOUS
 10
-552.16243197395318
 20
114.92552765901161
 30
0.0
 11
-551.76643391417701
 21
114.405501967044
 31
0.0
  0
LINE
  5
7AE
  8
0
  6
CONTINUOUS
 10
-550.77368785884744
 20
114.92552765901161
 30
0.0
 11
-549.96206824533158
 21
114.405501967044
 31
0.0
  0
LINE
  5
7AF
  8
0
  6
CONTINUOUS
 10
-551.76643391417701
 20
114.405501967044
 30
0.0
 11
-551.25889481785703
 21
113.99362182748951
 31
0.0
  0
LINE
  5
7B0
  8
0
  6
CONTINUOUS
 10
-549.96206824533158
 20
114.405501967044
 30
0.0
 11
-549.31923462221721
 21
113.99362182748951
 31
0.0
  0
LINE
  5
7B1
  8
0
  6
CONTINUOUS
 10
-420.75000000000108
 20
112.8297633734888
 30
0.0
 11
-421.33234285148188
 21
112.75309648263909
 31
0.0
  0
LINE
  5
7B2
  8
0
  6
CONTINUOUS
 10
-420.16765714852011
 20
112.75309648263909
 30
0.0
 11
-420.75000000000108
 21
112.8297633734888
 31
0.0
  0
LINE
  5
7B3
  8
0
  6
CONTINUOUS
 10
-421.33234285148188
 20
112.75309648263909
 30
0.0
 11
-421.87500000000148
 21
112.5283205320036
 31
0.0
  0
LINE
  5
7B4
  8
0
  6
CONTINUOUS
 10
-420.16765714852011
 20
112.75309648263909
 30
0.0
 11
-419.62500000000063
 21
112.5283205320036
 31
0.0
  0
LINE
  5
7B5
  8
0
  6
CONTINUOUS
 10
-421.87500000000148
 20
112.5283205320036
 30
0.0
 11
-422.34099025767142
 21
112.17075363115831
 31
0.0
  0
LINE
  5
7B6
  8
0
  6
CONTINUOUS
 10
-419.62500000000063
 20
112.5283205320036
 30
0.0
 11
-419.15900974233062
 21
112.17075363115831
 31
0.0
  0
LINE
  5
7B7
  8
0
  6
CONTINUOUS
 10
-422.34099025767142
 20
112.17075363115831
 30
0.0
 11
-422.60264128501899
 21
111.8297633734889
 31
0.0
  0
LINE
  5
7B8
  8
0
  6
CONTINUOUS
 10
-419.15900974233062
 20
112.17075363115831
 30
0.0
 11
-418.89735871498289
 21
111.8297633734889
 31
0.0
  0
LINE
  5
7B9
  8
0
  6
CONTINUOUS
 10
-420.75000000000108
 20
111.8297633734889
 30
0.0
 11
-420.42647619362151
 21
111.7871706563501
 31
0.0
  0
LINE
  5
7BA
  8
0
  6
CONTINUOUS
 10
-418.89735871498289
 20
111.8297633734889
 30
0.0
 11
-418.86467617363098
 21
111.7871706563501
 31
0.0
  0
LINE
  5
7BB
  8
0
  6
CONTINUOUS
 10
-422.60264128501899
 20
111.8297633734889
 30
0.0
 11
-422.63532382637101
 21
111.7871706563501
 31
0.0
  0
LINE
  5
7BC
  8
0
  6
CONTINUOUS
 10
-420.75000000000108
 20
111.8297633734889
 30
0.0
 11
-421.0735238063794
 21
111.7871706563501
 31
0.0
  0
LINE
  5
7BD
  8
0
  6
CONTINUOUS
 10
-420.42647619362219
 20
111.7871706563501
 30
0.0
 11
-420.22752741369942
 21
111.7047633734884
 31
0.0
  0
LINE
  5
7BE
  8
0
  6
CONTINUOUS
 10
-418.86467617363098
 20
111.7871706563501
 30
0.0
 11
-418.8014428414852
 21
111.7047633734884
 31
0.0
  0
LINE
  5
7BF
  8
0
  6
CONTINUOUS
 10
-422.63532382637101
 20
111.7871706563501
 30
0.0
 11
-422.69855715851668
 21
111.7047633734884
 31
0.0
  0
LINE
  5
7C0
  8
0
  6
CONTINUOUS
 10
-421.0735238063794
 20
111.7871706563501
 30
0.0
 11
-421.27247258630263
 21
111.7047633734884
 31
0.0
  0
LINE
  5
7C1
  8
0
  6
CONTINUOUS
 10
-420.22752741369942
 20
111.7047633734884
 30
0.0
 11
-420.12500000000068
 21
111.6622951282193
 31
0.0
  0
LINE
  5
7C2
  8
0
  6
CONTINUOUS
 10
-418.8014428414852
 20
111.7047633734884
 30
0.0
 11
-418.7838519183245
 21
111.6622951282193
 31
0.0
  0
LINE
  5
7C3
  8
0
  6
CONTINUOUS
 10
-422.69855715851668
 20
111.7047633734884
 30
0.0
 11
-422.71614808167737
 21
111.6622951282193
 31
0.0
  0
LINE
  5
7C4
  8
0
  6
CONTINUOUS
 10
-421.27247258630263
 20
111.7047633734884
 30
0.0
 11
-421.37500000000148
 21
111.6622951282193
 31
0.0
  0
LINE
  5
7C5
  8
0
  6
CONTINUOUS
 10
-420.12500000000068
 20
111.6622951282193
 30
0.0
 11
-419.86611652351689
 21
111.4636468499717
 31
0.0
  0
LINE
  5
7C6
  8
0
  6
CONTINUOUS
 10
-418.7838519183245
 20
111.6622951282193
 30
0.0
 11
-418.70156910733238
 21
111.4636468499717
 31
0.0
  0
LINE
  5
7C7
  8
0
  6
CONTINUOUS
 10
-422.71614808167737
 20
111.6622951282193
 30
0.0
 11
-422.7984308926695
 21
111.4636468499717
 31
0.0
  0
LINE
  5
7C8
  8
0
  6
CONTINUOUS
 10
-421.37500000000148
 20
111.6622951282193
 30
0.0
 11
-421.6338834764847
 21
111.4636468499717
 31
0.0
  0
LINE
  5
7C9
  8
0
  6
CONTINUOUS
 10
-551.25889481785703
 20
113.99362182748951
 30
0.0
 11
-547.16176953181775
 21
111.41004567568309
 31
0.0
  0
LINE
  5
7CA
  8
0
  6
CONTINUOUS
 10
-549.31923462221721
 20
113.99362182748951
 30
0.0
 11
-545.2869702356561
 21
111.41004567568309
 31
0.0
  0
LINE
  5
7CB
  8
0
  6
CONTINUOUS
 10
-419.86611652351701
 20
111.4636468499717
 30
0.0
 11
-419.66746824526967
 21
111.2047633734885
 31
0.0
  0
LINE
  5
7CC
  8
0
  6
CONTINUOUS
 10
-418.70156910733238
 20
111.4636468499717
 30
0.0
 11
-418.59433606029882
 21
111.2047633734885
 31
0.0
  0
LINE
  5
7CD
  8
0
  6
CONTINUOUS
 10
-422.7984308926695
 20
111.4636468499717
 30
0.0
 11
-422.90566393970317
 21
111.2047633734885
 31
0.0
  0
LINE
  5
7CE
  8
0
  6
CONTINUOUS
 10
-421.6338834764847
 20
111.4636468499717
 30
0.0
 11
-421.83253175473232
 21
111.2047633734885
 31
0.0
  0
LINE
  5
7CF
  8
0
  6
CONTINUOUS
 10
-419.66746824526967
 20
111.2047633734885
 30
0.0
 11
-419.64979907582068
 21
111.1621062249688
 31
0.0
  0
LINE
  5
7D0
  8
0
  6
CONTINUOUS
 10
-418.59433606029882
 20
111.2047633734885
 30
0.0
 11
-418.57666689084971
 21
111.1621062249688
 31
0.0
  0
LINE
  5
7D1
  8
0
  6
CONTINUOUS
 10
-422.90566393970317
 20
111.2047633734885
 30
0.0
 11
-422.92333310915222
 21
111.1621062249688
 31
0.0
  0
LINE
  5
7D2
  8
0
  6
CONTINUOUS
 10
-421.83253175473232
 20
111.2047633734885
 30
0.0
 11
-421.85020092418131
 21
111.1621062249688
 31
0.0
  0
LINE
  5
7D3
  8
0
  6
CONTINUOUS
 10
-419.64979907582068
 20
111.1621062249688
 30
0.0
 11
-419.5425927171388
 21
110.9032871798663
 31
0.0
  0
LINE
  5
7D4
  8
0
  6
CONTINUOUS
 10
-418.57666689084971
 20
111.1621062249688
 30
0.0
 11
-418.5425927171388
 21
110.9032871798663
 31
0.0
  0
LINE
  5
7D5
  8
0
  6
CONTINUOUS
 10
-422.92333310915222
 20
111.1621062249688
 30
0.0
 11
-422.95740728286307
 21
110.9032871798663
 31
0.0
  0
LINE
  5
7D6
  8
0
  6
CONTINUOUS
 10
-421.85020092418131
 20
111.1621062249688
 30
0.0
 11
-421.95740728286307
 21
110.9032871798663
 31
0.0
  0
LINE
  5
7D7
  8
0
  6
CONTINUOUS
 10
-419.5425927171388
 20
110.9032871798663
 30
0.0
 11
-419.50000000000011
 21
110.57976337348791
 31
0.0
  0
LINE
  5
7D8
  8
0
  6
CONTINUOUS
 10
-418.5425927171388
 20
110.9032871798663
 30
0.0
 11
-418.50000000000011
 21
110.57976337348791
 31
0.0
  0
LINE
  5
7D9
  8
0
  6
CONTINUOUS
 10
-422.95740728286307
 20
110.9032871798663
 30
0.0
 11
-423.00000000000188
 21
110.57976337348791
 31
0.0
  0
LINE
  5
7DA
  8
0
  6
CONTINUOUS
 10
-421.95740728286307
 20
110.9032871798663
 30
0.0
 11
-421.95999574841233
 21
110.57976337348791
 31
0.0
  0
LINE
  5
7DB
  8
0
  6
CONTINUOUS
 10
-547.16176953181775
 20
111.41004567568309
 30
0.0
 11
-545.82036066419266
 21
110.5641765068718
 31
0.0
  0
LINE
  5
7DC
  8
0
  6
CONTINUOUS
 10
-545.2869702356561
 20
111.41004567568309
 30
0.0
 11
-544.11951618625062
 21
110.5641765068718
 31
0.0
  0
LINE
  5
7DD
  8
0
  6
CONTINUOUS
 10
-545.82036066419266
 20
110.5641765068718
 30
0.0
 11
-543.87109144315127
 21
109.15184962631371
 31
0.0
  0
LINE
  5
7DE
  8
0
  6
CONTINUOUS
 10
-544.11951618625062
 20
110.5641765068718
 30
0.0
 11
-542.17024696520912
 21
109.15184962631371
 31
0.0
  0
LINE
  5
7DF
  8
0
  6
CONTINUOUS
 10
-543.87109144315127
 20
109.15184962631371
 30
0.0
 11
-542.80666956797563
 21
108.3806315665726
 31
0.0
  0
LINE
  5
7E0
  8
0
  6
CONTINUOUS
 10
-542.17024696520912
 20
109.15184962631371
 30
0.0
 11
-541.34544810790055
 21
108.3806315665726
 31
0.0
  0
LINE
  5
7E1
  8
0
  6
CONTINUOUS
 10
-542.80666956797563
 20
108.3806315665726
 30
0.0
 11
-540.86426267394188
 21
106.5644078136292
 31
0.0
  0
LINE
  5
7E2
  8
0
  6
CONTINUOUS
 10
-541.34544810790055
 20
108.3806315665726
 30
0.0
 11
-539.40304121386714
 21
106.5644078136292
 31
0.0
  0
LINE
  5
7E3
  8
0
  6
CONTINUOUS
 10
-540.86426267394188
 20
106.5644078136292
 30
0.0
 11
-540.13094169271096
 21
105.8787250204232
 31
0.0
  0
LINE
  5
7E4
  8
0
  6
CONTINUOUS
 10
-539.40304121386714
 20
106.5644078136292
 30
0.0
 11
-538.83524380978258
 21
105.8787250204232
 31
0.0
  0
LINE
  5
7E5
  8
0
  6
CONTINUOUS
 10
-423.00000000000188
 20
110.57976337348791
 30
0.0
 11
-423.00000000000188
 21
105.57976337348791
 31
0.0
  0
LINE
  5
7E6
  8
0
  6
CONTINUOUS
 10
-421.95999574841233
 20
110.57976337348791
 30
0.0
 11
-422.00000000000188
 21
105.57976337348791
 31
0.0
  0
LINE
  5
7E7
  8
0
  6
CONTINUOUS
 10
-540.13094169271096
 20
105.8787250204232
 30
0.0
 11
-538.26324934043885
 21
103.6232647105608
 31
0.0
  0
LINE
  5
7E8
  8
0
  6
CONTINUOUS
 10
-538.83524380978258
 20
105.8787250204232
 30
0.0
 11
-536.96755145751058
 21
103.6232647105608
 31
0.0
  0
LINE
  5
7E9
  8
0
  6
CONTINUOUS
 10
-538.26324934043885
 20
103.6232647105608
 30
0.0
 11
-537.77596399441575
 21
103.0348097885305
 31
0.0
  0
LINE
  5
7EA
  8
0
  6
CONTINUOUS
 10
-536.96755145751058
 20
103.6232647105608
 30
0.0
 11
-536.59301842901459
 21
103.0348097885305
 31
0.0
  0
LINE
  5
7EB
  8
0
  6
CONTINUOUS
 10
-537.77596399441575
 20
103.0348097885305
 30
0.0
 11
-536.10012783389971
 21
100.4017868983146
 31
0.0
  0
LINE
  5
7EC
  8
0
  6
CONTINUOUS
 10
-536.59301842901459
 20
103.0348097885305
 30
0.0
 11
-534.91718226849855
 21
100.4017868983146
 31
0.0
  0
LINE
  5
7ED
  8
0
  6
CONTINUOUS
 10
-536.10012783389971
 20
100.4017868983146
 30
0.0
 11
-535.79337560504052
 21
99.919827110573578
 31
0.0
  0
LINE
  5
7EE
  8
0
  6
CONTINUOUS
 10
-534.91718226849855
 20
100.4017868983146
 30
0.0
 11
-534.69059447058021
 21
99.919827110573578
 31
0.0
  0
LINE
  5
7EF
  8
0
  6
CONTINUOUS
 10
-535.79337560504052
 20
99.919827110573578
 30
0.0
 11
-534.55666276910142
 21
97.289297746761562
 31
0.0
  0
LINE
  5
7F0
  8
0
  6
CONTINUOUS
 10
-534.69059447058021
 20
99.919827110573578
 30
0.0
 11
-533.45388163464099
 21
97.289297746761562
 31
0.0
  0
LINE
  5
7F1
  8
0
  6
CONTINUOUS
 10
-534.55666276910142
 20
97.289297746761562
 30
0.0
 11
-534.23481565653583
 21
96.604718226230531
 31
0.0
  0
LINE
  5
7F2
  8
0
  6
CONTINUOUS
 10
-533.45388163464099
 20
97.289297746761562
 30
0.0
 11
-533.2232109898539
 21
96.604718226230531
 31
0.0
  0
LINE
  5
7F3
  8
0
  6
CONTINUOUS
 10
-534.23481565653583
 20
96.604718226230531
 30
0.0
 11
-533.16366508972419
 21
93.313471362838243
 31
0.0
  0
LINE
  5
7F4
  8
0
  6
CONTINUOUS
 10
-533.2232109898539
 20
96.604718226230531
 30
0.0
 11
-532.11421778546594
 21
93.313471362838243
 31
0.0
  0
LINE
  5
7F5
  8
0
  6
CONTINUOUS
 10
-533.16366508972419
 20
93.313471362838243
 30
0.0
 11
-533.08307110491808
 21
93.065836055608855
 31
0.0
  0
LINE
  5
7F6
  8
0
  6
CONTINUOUS
 10
-532.11421778546594
 20
93.313471362838243
 30
0.0
 11
-532.05092312139709
 21
93.065836055608855
 31
0.0
  0
LINE
  5
7F7
  8
0
  6
CONTINUOUS
 10
-533.08307110491808
 20
93.065836055608855
 30
0.0
 11
-527.79373791779631
 21
72.371743305422058
 31
0.0
  0
LINE
  5
7F8
  8
0
  6
CONTINUOUS
 10
-532.05092312139709
 20
93.065836055608855
 30
0.0
 11
-526.76158993427532
 21
72.371743305422058
 31
0.0
  0
LINE
  5
7F9
  8
0
  6
CONTINUOUS
 10
-527.79373791779631
 20
72.371743305422058
 30
0.0
 11
-527.63550125762413
 21
71.752655037347949
 31
0.0
  0
LINE
  5
7FA
  8
0
  6
CONTINUOUS
 10
-526.76158993427532
 20
72.371743305422058
 30
0.0
 11
-526.53835855907005
 21
71.752655037347949
 31
0.0
  0
LINE
  5
7FB
  8
0
  6
CONTINUOUS
 10
-527.63550125762413
 20
71.752655037347949
 30
0.0
 11
-525.63912495653415
 21
66.319533979795864
 31
0.0
  0
LINE
  5
7FC
  8
0
  6
CONTINUOUS
 10
-526.53835855907005
 20
71.752655037347949
 30
0.0
 11
-524.57927913876836
 21
66.319533979795864
 31
0.0
  0
LINE
  5
7FD
  8
0
  6
CONTINUOUS
 10
-525.63912495653415
 20
66.319533979795864
 30
0.0
 11
-525.47796880109786
 21
65.880948878792182
 31
0.0
  0
LINE
  5
7FE
  8
0
  6
CONTINUOUS
 10
-524.57927913876836
 20
66.319533979795864
 30
0.0
 11
-524.30679722226773
 21
65.880948878792182
 31
0.0
  0
LINE
  5
7FF
  8
0
  6
CONTINUOUS
 10
-525.47796880109786
 20
65.880948878792182
 30
0.0
 11
-522.55661818503199
 21
61.178762137489777
 31
0.0
  0
LINE
  5
800
  8
0
  6
CONTINUOUS
 10
-524.30679722226773
 20
65.880948878792182
 30
0.0
 11
-521.38544660620175
 21
61.178762137489777
 31
0.0
  0
LINE
  5
801
  8
0
  6
CONTINUOUS
 10
-522.55661818503199
 20
61.178762137489777
 30
0.0
 11
-522.17678055315093
 21
60.567377982963251
 31
0.0
  0
LINE
  5
802
  8
0
  6
CONTINUOUS
 10
-521.38544660620175
 20
61.178762137489777
 30
0.0
 11
-520.80470349060181
 21
60.567377982963251
 31
0.0
  0
LINE
  5
803
  8
0
  6
CONTINUOUS
 10
-522.17678055315093
 20
60.567377982963251
 30
0.0
 11
-518.58940340392041
 21
56.790724439539311
 31
0.0
  0
LINE
  5
804
  8
0
  6
CONTINUOUS
 10
-520.80470349060181
 20
60.567377982963251
 30
0.0
 11
-517.21732634137118
 21
56.790724439539311
 31
0.0
  0
LINE
  5
805
  8
0
  6
CONTINUOUS
 10
-518.58940340392041
 20
56.790724439539311
 30
0.0
 11
-517.86855540546867
 21
56.03184321953524
 31
0.0
  0
LINE
  5
806
  8
0
  6
CONTINUOUS
 10
-517.21732634137118
 20
56.790724439539311
 30
0.0
 11
-516.33299740425116
 21
56.03184321953524
 31
0.0
  0
LINE
  5
807
  8
0
  6
CONTINUOUS
 10
-517.86855540546867
 20
56.03184321953524
 30
0.0
 11
-514.85982853723215
 21
53.449923505517383
 31
0.0
  0
LINE
  5
808
  8
0
  6
CONTINUOUS
 10
-516.33299740425116
 20
56.03184321953524
 30
0.0
 11
-513.32427053601486
 21
53.449923505517383
 31
0.0
  0
LINE
  5
809
  8
0
  6
CONTINUOUS
 10
-514.85982853723215
 20
53.449923505517383
 30
0.0
 11
-513.97549960011224
 21
52.691042285513312
 31
0.0
  0
LINE
  5
80A
  8
0
  6
CONTINUOUS
 10
-513.32427053601486
 20
53.449923505517383
 30
0.0
 11
-512.53631069543815
 21
52.691042285513312
 31
0.0
  0
LINE
  5
80B
  8
0
  6
CONTINUOUS
 10
-513.97549960011224
 20
52.691042285513312
 30
0.0
 11
-513.3435630543313
 21
52.079116958735277
 31
0.0
  0
LINE
  5
80C
  8
0
  6
CONTINUOUS
 10
-512.53631069543815
 20
52.691042285513312
 30
0.0
 11
-511.90093776720812
 21
52.079116958735277
 31
0.0
  0
LINE
  5
80D
  8
0
  6
CONTINUOUS
 10
-513.3435630543313
 20
52.079116958735277
 30
0.0
 11
-512.35064184144494
 21
51.117638086027313
 31
0.0
  0
LINE
  5
80E
  8
0
  6
CONTINUOUS
 10
-511.90093776720812
 20
52.079116958735277
 30
0.0
 11
-511.08399644701979
 21
51.117638086027313
 31
0.0
  0
LINE
  5
80F
  8
0
  6
CONTINUOUS
 10
-512.35064184144494
 20
51.117638086027313
 30
0.0
 11
-511.47627590886958
 21
50.045434089375043
 31
0.0
  0
LINE
  5
810
  8
0
  6
CONTINUOUS
 10
-511.08399644701979
 20
51.117638086027313
 30
0.0
 11
-510.17297513037943
 21
50.045434089375043
 31
0.0
  0
LINE
  5
811
  8
0
  6
CONTINUOUS
 10
-511.47627590886958
 20
50.045434089375043
 30
0.0
 11
-510.85064182682748
 21
49.278241157656311
 31
0.0
  0
LINE
  5
812
  8
0
  6
CONTINUOUS
 10
-510.17297513037943
 20
50.045434089375043
 30
0.0
 11
-509.61125191895638
 21
49.278241157656311
 31
0.0
  0
LINE
  5
813
  8
0
  6
CONTINUOUS
 10
-510.85064182682748
 20
49.278241157656311
 30
0.0
 11
-510.3427894410803
 21
48.536197279314379
 31
0.0
  0
LINE
  5
814
  8
0
  6
CONTINUOUS
 10
-509.61125191895638
 20
49.278241157656311
 30
0.0
 11
-509.1628915513819
 21
48.536197279314379
 31
0.0
  0
LINE
  5
815
  8
0
  6
CONTINUOUS
 10
-510.3427894410803
 20
48.536197279314379
 30
0.0
 11
-510.09511135739717
 21
48.174304707861673
 31
0.0
  0
LINE
  5
816
  8
0
  6
CONTINUOUS
 10
-509.1628915513819
 20
48.536197279314379
 30
0.0
 11
-509.07454257538399
 21
48.174304707861673
 31
0.0
  0
LINE
  5
817
  8
0
  6
CONTINUOUS
 10
-510.09511135739717
 20
48.174304707861673
 30
0.0
 11
-510.0442091438178
 21
47.965800503293273
 31
0.0
  0
LINE
  5
818
  8
0
  6
CONTINUOUS
 10
-509.07454257538399
 20
48.174304707861673
 30
0.0
 11
-509.02364036180461
 21
47.965800503293273
 31
0.0
  0
LINE
  5
819
  8
0
  6
CONTINUOUS
 10
-510.0442091438178
 20
47.965800503293273
 30
0.0
 11
-510.01774958540977
 21
47.857417610072119
 31
0.0
  0
LINE
  5
81A
  8
0
  6
CONTINUOUS
 10
-509.02364036180461
 20
47.965800503293273
 30
0.0
 11
-509.02605274686482
 21
47.857417610072119
 31
0.0
  0
LINE
  5
81B
  8
0
  6
CONTINUOUS
 10
-510.01774958540977
 20
47.857417610072119
 30
0.0
 11
-510.02500820101591
 21
47.531304763023982
 31
0.0
  0
LINE
  5
81C
  8
0
  6
CONTINUOUS
 10
-509.02605274686482
 20
47.857417610072119
 30
0.0
 11
-509.03331136247078
 21
47.531304763023982
 31
0.0
  0
LINE
  5
81D
  8
0
  6
CONTINUOUS
 10
-510.02500820101591
 20
47.531304763023982
 30
0.0
 11
-510.04854199383362
 21
47.378797378606251
 31
0.0
  0
LINE
  5
81E
  8
0
  6
CONTINUOUS
 10
-509.03331136247078
 20
47.531304763023982
 30
0.0
 11
-509.03670586989529
 21
47.378797378606251
 31
0.0
  0
LINE
  5
81F
  8
0
  6
CONTINUOUS
 10
-510.04854199383362
 20
47.378797378606251
 30
0.0
 11
-510.49990586115382
 21
44.45379827800874
 31
0.0
  0
LINE
  5
820
  8
0
  6
CONTINUOUS
 10
-509.03670586989529
 20
47.378797378606251
 30
0.0
 11
-509.48806973721548
 21
44.45379827800874
 31
0.0
  0
LINE
  5
821
  8
0
  6
CONTINUOUS
 10
-510.49990586115382
 20
44.45379827800874
 30
0.0
 11
-510.50695908776811
 21
44.301290893591137
 31
0.0
  0
LINE
  5
822
  8
0
  6
CONTINUOUS
 10
-509.48806973721548
 20
44.45379827800874
 30
0.0
 11
-509.51160353003331
 21
44.301290893591137
 31
0.0
  0
LINE
  5
823
  8
0
  6
CONTINUOUS
 10
-510.50695908776811
 20
44.301290893591137
 30
0.0
 11
-510.55378257093662
 21
43.288856820815411
 31
0.0
  0
LINE
  5
824
  8
0
  6
CONTINUOUS
 10
-509.51160353003331
 20
44.301290893591137
 30
0.0
 11
-509.55842701320171
 21
43.288856820815411
 31
0.0
  0
LINE
  5
825
  8
0
  6
CONTINUOUS
 10
-510.55378257093662
 20
43.288856820815411
 30
0.0
 11
-510.55658691972621
 21
43.228220189911823
 31
0.0
  0
LINE
  5
826
  8
0
  6
CONTINUOUS
 10
-509.55842701320171
 20
43.288856820815411
 30
0.0
 11
-509.548170371975
 21
43.228220189911823
 31
0.0
  0
LINE
  5
827
  8
0
  6
CONTINUOUS
 10
-510.55658691972621
 20
43.228220189911823
 30
0.0
 11
-510.39780914552688
 21
42.289535772956278
 31
0.0
  0
LINE
  5
828
  8
0
  6
CONTINUOUS
 10
-509.548170371975
 20
43.228220189911823
 30
0.0
 11
-509.38939259777578
 21
42.289535772956278
 31
0.0
  0
LINE
  5
829
  8
0
  6
CONTINUOUS
 10
-510.39780914552688
 20
42.289535772956278
 30
0.0
 11
-510.35196631157891
 21
42.01851576355584
 31
0.0
  0
LINE
  5
82A
  8
0
  6
CONTINUOUS
 10
-509.38939259777578
 20
42.289535772956278
 30
0.0
 11
-509.28072183540968
 21
42.01851576355584
 31
0.0
  0
LINE
  5
82B
  8
0
  6
CONTINUOUS
 10
-510.35196631157891
 20
42.01851576355584
 30
0.0
 11
-510.08344048155158
 21
41.348824382050552
 31
0.0
  0
LINE
  5
82C
  8
0
  6
CONTINUOUS
 10
-509.28072183540968
 20
42.01851576355584
 30
0.0
 11
-509.01219600538241
 21
41.348824382050552
 31
0.0
  0
LINE
  5
82D
  8
0
  6
CONTINUOUS
 10
-510.08344048155158
 20
41.348824382050552
 30
0.0
 11
-509.89535991026059
 21
40.879759869301651
 31
0.0
  0
LINE
  5
82E
  8
0
  6
CONTINUOUS
 10
-509.01219600538241
 20
41.348824382050552
 30
0.0
 11
-508.7630672582664
 21
40.879759869301651
 31
0.0
  0
LINE
  5
82F
  8
0
  6
CONTINUOUS
 10
-419.50000000000011
 20
110.57976337348791
 30
0.0
 11
-419.50000000000011
 21
39.079763373487701
 31
0.0
  0
LINE
  5
830
  8
0
  6
CONTINUOUS
 10
-418.50000000000011
 20
110.57976337348791
 30
0.0
 11
-418.50000000000011
 21
39.079763373487701
 31
0.0
  0
LINE
  5
831
  8
0
  6
CONTINUOUS
 10
-419.50000000000011
 20
39.079763373487701
 30
0.0
 11
-419.5596298039942
 21
38.626830044558453
 31
0.0
  0
LINE
  5
832
  8
0
  6
CONTINUOUS
 10
-418.50000000000011
 20
39.079763373487701
 30
0.0
 11
-418.5596298039942
 21
38.626830044558453
 31
0.0
  0
LINE
  5
833
  8
0
  6
CONTINUOUS
 10
-509.89535991026059
 20
40.879759869301651
 30
0.0
 11
-508.66395194822587
 21
38.561240700424648
 31
0.0
  0
LINE
  5
834
  8
0
  6
CONTINUOUS
 10
-508.7630672582664
 20
40.879759869301651
 30
0.0
 11
-507.53165929623179
 21
38.561240700424648
 31
0.0
  0
LINE
  5
835
  8
0
  6
CONTINUOUS
 10
-419.5596298039942
 20
38.626830044558453
 30
0.0
 11
-419.66683616267619
 21
38.368010999455826
 31
0.0
  0
LINE
  5
836
  8
0
  6
CONTINUOUS
 10
-418.5596298039942
 20
38.626830044558453
 30
0.0
 11
-418.5937039777051
 21
38.368010999455826
 31
0.0
  0
LINE
  5
837
  8
0
  6
CONTINUOUS
 10
-419.66683616267619
 20
38.368010999455826
 30
0.0
 11
-419.73445554337718
 21
38.2047633734879
 31
0.0
  0
LINE
  5
838
  8
0
  6
CONTINUOUS
 10
-418.5937039777051
 20
38.368010999455826
 30
0.0
 11
-418.66132335840621
 21
38.2047633734879
 31
0.0
  0
LINE
  5
839
  8
0
  6
CONTINUOUS
 10
-508.66395194822587
 20
38.561240700424648
 30
0.0
 11
-508.33721029220823
 21
37.946045073870337
 31
0.0
  0
LINE
  5
83A
  8
0
  6
CONTINUOUS
 10
-507.53165929623179
 20
38.561240700424648
 30
0.0
 11
-507.15865424085342
 21
37.946045073870337
 31
0.0
  0
LINE
  5
83B
  8
0
  6
CONTINUOUS
 10
-419.73445554337718
 20
38.2047633734879
 30
0.0
 11
-420.01256313292339
 21
37.842326506411567
 31
0.0
  0
LINE
  5
83C
  8
0
  6
CONTINUOUS
 10
-418.66132335840621
 20
38.2047633734879
 30
0.0
 11
-418.81144962425321
 21
37.842326506411567
 31
0.0
  0
LINE
  5
83D
  8
0
  6
CONTINUOUS
 10
-508.33721029220823
 20
37.946045073870337
 30
0.0
 11
-508.2542447748541
 21
37.789835963427912
 31
0.0
  0
LINE
  5
83E
  8
0
  6
CONTINUOUS
 10
-507.15865424085342
 20
37.946045073870337
 30
0.0
 11
-506.99357446936392
 21
37.789835963427912
 31
0.0
  0
LINE
  5
83F
  8
0
  6
CONTINUOUS
 10
-420.01256313292339
 20
37.842326506411567
 30
0.0
 11
-420.19183889811711
 21
37.704763373487879
 31
0.0
  0
LINE
  5
840
  8
0
  6
CONTINUOUS
 10
-418.81144962425321
 20
37.842326506411567
 30
0.0
 11
-418.86843013959282
 21
37.704763373487879
 31
0.0
  0
LINE
  5
841
  8
0
  6
CONTINUOUS
 10
-508.2542447748541
 20
37.789835963427912
 30
0.0
 11
-508.18382826771182
 21
37.686128698655907
 31
0.0
  0
LINE
  5
842
  8
0
  6
CONTINUOUS
 10
-506.99357446936392
 20
37.789835963427912
 30
0.0
 11
-506.88397797065858
 21
37.686128698655907
 31
0.0
  0
LINE
  5
843
  8
0
  6
CONTINUOUS
 10
-420.19183889811711
 20
37.704763373487879
 30
0.0
 11
-420.37499999999977
 21
37.564218916865343
 31
0.0
  0
LINE
  5
844
  8
0
  6
CONTINUOUS
 10
-418.86843013959282
 20
37.704763373487879
 30
0.0
 11
-418.97627369417012
 21
37.564218916865343
 31
0.0
  0
LINE
  5
845
  8
0
  6
CONTINUOUS
 10
-508.18382826771182
 20
37.686128698655907
 30
0.0
 11
-508.0515329034863
 21
37.491288157387551
 31
0.0
  0
LINE
  5
846
  8
0
  6
CONTINUOUS
 10
-506.88397797065858
 20
37.686128698655907
 30
0.0
 11
-506.5598780802066
 21
37.491288157387551
 31
0.0
  0
LINE
  5
847
  8
0
  6
CONTINUOUS
 10
-420.37499999999977
 20
37.564218916865343
 30
0.0
 11
-420.7970666710703
 21
37.389393177482312
 31
0.0
  0
LINE
  5
848
  8
0
  6
CONTINUOUS
 10
-418.97627369417012
 20
37.564218916865343
 30
0.0
 11
-419.11042220219213
 21
37.389393177482312
 31
0.0
  0
LINE
  5
849
  8
0
  6
CONTINUOUS
 10
-420.7970666710703
 20
37.389393177482312
 30
0.0
 11
-420.93965142947502
 21
37.370621537920407
 31
0.0
  0
LINE
  5
84A
  8
0
  6
CONTINUOUS
 10
-419.11042220219213
 20
37.389393177482312
 30
0.0
 11
-419.1248261878365
 21
37.370621537920407
 31
0.0
  0
LINE
  5
84B
  8
0
  6
CONTINUOUS
 10
-508.0515329034863
 20
37.491288157387551
 30
0.0
 11
-507.9696011131702
 21
37.370621537920407
 31
0.0
  0
LINE
  5
84C
  8
0
  6
CONTINUOUS
 10
-506.5598780802066
 20
37.491288157387551
 30
0.0
 11
-506.20148842848778
 21
37.370621537920407
 31
0.0
  0
LINE
  5
84D
  8
0
  6
CONTINUOUS
 10
-419.1248261878365
 20
37.370621537920407
 30
0.0
 11
-419.15617776008469
 21
37.329763373488099
 31
0.0
  0
LINE
  5
84E
  8
0
  6
CONTINUOUS
 10
-507.9696011131702
 20
37.370621537920407
 30
0.0
 11
-507.9418587054044
 21
37.329763373488099
 31
0.0
  0
LINE
  5
84F
  8
0
  6
CONTINUOUS
 10
-507.9418587054044
 20
37.329763373488099
 30
0.0
 11
-507.92043150051859
 21
37.29820604551756
 31
0.0
  0
LINE
  5
850
  8
0
  6
CONTINUOUS
 10
-419.15617776008469
 20
37.329763373488099
 30
0.0
 11
-419.18039254950497
 21
37.29820604551756
 31
0.0
  0
LINE
  5
851
  8
0
  6
CONTINUOUS
 10
-507.92043150051859
 20
37.29820604551756
 30
0.0
 11
-507.74818966114299
 21
37.135219725224971
 31
0.0
  0
LINE
  5
852
  8
0
  6
CONTINUOUS
 10
-419.18039254950497
 20
37.29820604551756
 30
0.0
 11
-419.30545635173689
 21
37.135219725224971
 31
0.0
  0
LINE
  5
853
  8
0
  6
CONTINUOUS
 10
-507.74818966114299
 20
37.135219725224971
 30
0.0
 11
-507.48879736164082
 21
36.889766027323439
 31
0.0
  0
LINE
  5
854
  8
0
  6
CONTINUOUS
 10
-419.30545635173689
 20
37.135219725224971
 30
0.0
 11
-419.62533783869992
 21
36.889766027323439
 31
0.0
  0
LINE
  5
855
  8
0
  6
CONTINUOUS
 10
-507.48879736164082
 20
36.889766027323439
 30
0.0
 11
-507.17013354313838
 21
36.698193513080859
 31
0.0
  0
LINE
  5
856
  8
0
  6
CONTINUOUS
 10
-419.62533783869992
 20
36.889766027323439
 30
0.0
 11
-419.87499999999977
 21
36.698193513080859
 31
0.0
  0
LINE
  5
857
  8
0
  6
CONTINUOUS
 10
-507.17013354313838
 20
36.698193513080859
 30
0.0
 11
-506.97949753378759
 21
36.583588033901677
 31
0.0
  0
LINE
  5
858
  8
0
  6
CONTINUOUS
 10
-419.87499999999977
 20
36.698193513080859
 30
0.0
 11
-420.15168210215643
 21
36.583588033901677
 31
0.0
  0
LINE
  5
859
  8
0
  6
CONTINUOUS
 10
-506.97949753378759
 20
36.583588033901677
 30
0.0
 11
-506.50392611260872
 21
36.423467351193104
 31
0.0
  0
LINE
  5
85A
  8
0
  6
CONTINUOUS
 10
-420.15168210215643
 20
36.583588033901677
 30
0.0
 11
-420.53824762596781
 21
36.423467351193104
 31
0.0
  0
LINE
  5
85B
  8
0
  6
CONTINUOUS
 10
-506.50392611260872
 20
36.423467351193104
 30
0.0
 11
-506.41631379537222
 21
36.393969060453038
 31
0.0
  0
LINE
  5
85C
  8
0
  6
CONTINUOUS
 10
-420.53824762596781
 20
36.423467351193104
 30
0.0
 11
-420.7623093891753
 21
36.393969060453038
 31
0.0
  0
LINE
  5
85D
  8
0
  6
CONTINUOUS
 10
-506.41631379537222
 20
36.393969060453038
 30
0.0
 11
-505.82554403644019
 21
36.329763373488191
 31
0.0
  0
LINE
  5
85E
  8
0
  6
CONTINUOUS
 10
-420.7623093891753
 20
36.393969060453038
 30
0.0
 11
-421.2499999999996
 21
36.329763373488191
 31
0.0
  0
ENDBLK
  5
860
  8
0
  0
BLOCK
  8
0
  2
*X50
 70
     1
 10
0.0
 20
0.0
 30
0.0
  3
*X50
  1

  0
LINE
  5
862
  8
0
 62
     0
 10
-406.76659402887009
 20
-31.999999999999972
 30
0.0
 11
-400.5000000000004
 21
-25.733405971130281
 31
0.0
  0
LINE
  5
863
  8
0
 62
     0
 10
-413.83766184073562
 20
-31.99999999999994
 30
0.0
 11
-400.5000000000004
 21
-18.66233815926477
 31
0.0
  0
LINE
  5
864
  8
0
 62
     0
 10
-418.50000000000028
 20
-29.59127034739916
 30
0.0
 11
-406.40872965260149
 21
-17.500000000000341
 31
0.0
  0
LINE
  5
865
  8
0
 62
     0
 10
-418.50000000000028
 20
-22.520202535533681
 30
0.0
 11
-400.5000000000004
 21
-4.5202025355338256
 31
0.0
  0
LINE
  5
866
  8
0
 62
     0
 10
-418.50000000000028
 20
-15.449134723668211
 30
0.0
 11
-400.5000000000004
 21
2.5508652763316491
 31
0.0
  0
LINE
  5
867
  8
0
 62
     0
 10
-418.50000000000028
 20
-8.3780669118027333
 30
0.0
 11
-400.5000000000004
 21
9.6219330881971246
 31
0.0
  0
LINE
  5
868
  8
0
 62
     0
 10
-418.50000000000028
 20
-1.3069990999372569
 30
0.0
 11
-400.5000000000004
 21
16.6930009000626
 31
0.0
  0
LINE
  5
869
  8
0
 62
     0
 10
-418.50000000000028
 20
5.7640687119282168
 30
0.0
 11
-400.5000000000004
 21
23.764068711928068
 31
0.0
  0
LINE
  5
86A
  8
0
 62
     0
 10
-418.50000000000028
 20
12.835136523793659
 30
0.0
 11
-400.5000000000004
 21
30.835136523793551
 31
0.0
  0
LINE
  5
86B
  8
0
 62
     0
 10
-418.50000000000028
 20
19.906204335659108
 30
0.0
 11
-400.5000000000004
 21
37.906204335659027
 31
0.0
  0
LINE
  5
86C
  8
0
 62
     0
 10
-418.50000000000028
 20
26.977272147524591
 30
0.0
 11
-400.5000000000004
 21
44.977272147524502
 31
0.0
  0
LINE
  5
86D
  8
0
 62
     0
 10
-418.50000000000028
 20
34.048339959390063
 30
0.0
 11
-400.5000000000004
 21
52.04833995938997
 31
0.0
  0
LINE
  5
86E
  8
0
 62
     0
 10
-418.50000000000028
 20
41.119407771255531
 30
0.0
 11
-400.5000000000004
 21
59.119407771255453
 31
0.0
  0
LINE
  5
86F
  8
0
 62
     0
 10
-418.50000000000028
 20
48.190475583121007
 30
0.0
 11
-400.5000000000004
 21
66.190475583120929
 31
0.0
  0
LINE
  5
870
  8
0
 62
     0
 10
-418.50000000000028
 20
55.261543394986489
 30
0.0
 11
-400.5000000000004
 21
73.261543394986404
 31
0.0
  0
LINE
  5
871
  8
0
 62
     0
 10
-418.50000000000028
 20
62.332611206851936
 30
0.0
 11
-400.5000000000004
 21
80.332611206851851
 31
0.0
  0
LINE
  5
872
  8
0
 62
     0
 10
-418.50000000000028
 20
69.403679018717412
 30
0.0
 11
-400.5000000000004
 21
87.403679018717327
 31
0.0
  0
LINE
  5
873
  8
0
 62
     0
 10
-418.50000000000028
 20
76.474746830582873
 30
0.0
 11
-400.5000000000004
 21
94.474746830582788
 31
0.0
  0
LINE
  5
874
  8
0
 62
     0
 10
-418.50000000000028
 20
83.545814642448349
 30
0.0
 11
-401.24701045889208
 21
100.7988041835565
 31
0.0
  0
LINE
  5
875
  8
0
 62
     0
 10
-400.61688245431452
 20
108.4999999999996
 30
0.0
 11
-400.5000000000004
 21
108.6168824543137
 31
0.0
  0
LINE
  5
876
  8
0
 62
     0
 10
-418.50000000000028
 20
90.616882454313824
 30
0.0
 11
-406.2977731816531
 21
102.819109272661
 31
0.0
  0
LINE
  5
877
  8
0
 62
     0
 10
-407.68795026618
 20
108.4999999999995
 30
0.0
 11
-400.5000000000004
 21
115.6879502661792
 31
0.0
  0
LINE
  5
878
  8
0
 62
     0
 10
-418.50000000000028
 20
97.687950266179286
 30
0.0
 11
-408.00000000000028
 21
108.1879502661792
 31
0.0
  0
LINE
  5
879
  8
0
 62
     0
 10
-418.50000000000028
 20
104.7590180780447
 30
0.0
 11
-400.5000000000004
 21
122.7590180780447
 31
0.0
  0
LINE
  5
87A
  8
0
 62
     0
 10
-418.50000000000028
 20
111.83008588991019
 30
0.0
 11
-407.3300858899114
 21
122.9999999999991
 31
0.0
  0
LINE
  5
87B
  8
0
 62
     0
 10
-418.50000000000028
 20
118.9011537017757
 30
0.0
 11
-414.40115370177688
 21
122.9999999999991
 31
0.0
  0
ENDBLK
  5
87D
  8
0
  0
BLOCK
  8
0
  2
*X51
 70
     1
 10
0.0
 20
0.0
 30
0.0
  3
*X51
  1

  0
LINE
  5
87F
  8
0
 62
     0
 10
-65.000000000000512
 20
-224.99954087428651
 30
0.0
 11
-25.000000000000671
 21
-224.99954087428651
 31
0.0
  0
LINE
  5
880
  8
0
 62
     0
 10
-65.000000000000554
 20
-209.99954087428659
 30
0.0
 11
-25.000000000000728
 21
-209.99954087428659
 31
0.0
  0
LINE
  5
881
  8
0
 62
     0
 10
-65.000000000000625
 20
-194.99954087428651
 30
0.0
 11
-25.000000000000782
 21
-194.99954087428651
 31
0.0
  0
LINE
  5
882
  8
0
 62
     0
 10
-65.000000000000682
 20
-179.99954087428651
 30
0.0
 11
-25.000000000000838
 21
-179.99954087428651
 31
0.0
  0
LINE
  5
883
  8
0
 62
     0
 10
-65.000000000000739
 20
-164.99954087428651
 30
0.0
 11
-25.000000000000899
 21
-164.99954087428651
 31
0.0
  0
LINE
  5
884
  8
0
 62
     0
 10
-65.000000000000796
 20
-149.99954087428651
 30
0.0
 11
-25.000000000000949
 21
-149.99954087428651
 31
0.0
  0
LINE
  5
885
  8
0
 62
     0
 10
-65.000000000000853
 20
-134.99954087428651
 30
0.0
 11
-25.000000000001009
 21
-134.99954087428651
 31
0.0
  0
LINE
  5
886
  8
0
 62
     0
 10
-65.000000000000909
 20
-119.9995408742865
 30
0.0
 11
-25.000000000001059
 21
-119.9995408742865
 31
0.0
  0
LINE
  5
887
  8
0
 62
     0
 10
-65.000000000000966
 20
-104.9995408742865
 30
0.0
 11
-25.000000000001119
 21
-104.9995408742865
 31
0.0
  0
LINE
  5
888
  8
0
 62
     0
 10
-65.000000000001023
 20
-89.999540874286524
 30
0.0
 11
-25.000000000001169
 21
-89.999540874286524
 31
0.0
  0
LINE
  5
889
  8
0
 62
     0
 10
-65.000000000001066
 20
-74.999540874286538
 30
0.0
 11
-25.000000000001229
 21
-74.999540874286538
 31
0.0
  0
LINE
  5
88A
  8
0
 62
     0
 10
-65.000000000001123
 20
-59.999540874286538
 30
0.0
 11
-25.000000000001279
 21
-59.999540874286538
 31
0.0
  0
LINE
  5
88B
  8
0
 62
     0
 10
-65.00000000000118
 20
-44.999540874286538
 30
0.0
 11
-25.000000000001339
 21
-44.999540874286538
 31
0.0
  0
LINE
  5
88C
  8
0
 62
     0
 10
-65.000000000001236
 20
-29.999540874286541
 30
0.0
 11
-25.000000000001389
 21
-29.999540874286541
 31
0.0
  0
ENDBLK
  5
88E
  8
0
  0
BLOCK
  8
0
  2
*U52
 70
     1
 10
0.0
 20
0.0
 30
0.0
  3
*U52
  1

  0
TEXT
  5
890
  8
0
 62
     0
 10
-841.4468003147382
 20
242.75089448489189
 30
0.0
 40
12.5
  1
Min.overhang at closest
  7
ARIAL
  0
TEXT
  5
891
  8
0
 62
     0
 10
-832.14001313874894
 20
223.13052140879631
 30
0.0
 40
12.5
  1
point of the tile 50mm
  7
ARIAL
  0
ENDBLK
  5
893
  8
0
  0
BLOCK
  8
0
  2
*U53
 70
     1
 10
0.0
 20
0.0
 30
0.0
  3
*U53
  1

  0
TEXT
  5
895
  8
0
 62
     0
 10
-281.08254029082087
 20
236.53494542456099
 30
0.0
 40
12.5
  1
390mm
 50
20.000000000003631
  7
ARIAL
  0
ENDBLK
  5
897
  8
0
  0
ENDSEC
  0
SECTION
  2
ENTITIES
  0
LINE
  5
1FA
  8
0
  6
DASH
 10
-201.16518339091439
 20
74.999999999999545
 30
0.0
 11
-399.99999999999977
 21
75.000000000000185
 31
0.0
1001
REVIT
1002
{
1070
     1
1000
319493
1002
}
1002
{
1070
     2
1000
-2000051
1002
}
1002
{
1070
     3
1000
118704
1002
}
  0
LINE
  5
233
  8
0
  6
DASH
 10
-201.16518339091439
 20
64.999999999999545
 30
0.0
 11
-399.99999999999977
 21
65.000000000000185
 31
0.0
1001
REVIT
1002
{
1070
     1
1000
558232
1002
}
1002
{
1070
     2
1000
-2000051
1002
}
1002
{
1070
     3
1000
118704
1002
}
  0
CIRCLE
  5
251
  8
0
 10
-108.5459601297879
 20
222.51675251082679
 30
0.0
 40
2.5000000000000071
1001
REVIT
1002
{
1070
     1
1000
319488
1002
}
1002
{
1070
     5
1000
233013
1002
}
1002
{
1070
     2
1000
-2005028
1002
}
  0
INSERT
  5
252
  8
0
  6
CONTINUOUS
  2
*U28
 10
0.0
 20
0.0
 30
0.0
1001
REVIT
1002
{
1070
     1
1000
319488
1002
}
1002
{
1070
     5
1000
233013
1002
}
1002
{
1070
     2
1000
-2005028
1002
}
1001
ACAD
1002
{
1000
R14_HATCH_DATA
1000
252
1011
1.0
1021
0.0
1031
0.0000000002328306
1021
0.0
1031
0.0
1011
0.0
1021
0.0
1031
0.0000000002328306
1021
1.0
1031
0.0
1011
0.0
1021
0.0
1031
0.0000000002328306
1021
0.0
1031
1.0
1040
0.0
1010
0.0
1020
0.0
1030
1.0
1000
SOLID
1070
     1
1070
     0
1071
        1
1071
        0
1071
        1
1070
     2
1040
-108.5459601297879
1040
222.51675251082679
1040
2.5000000000000071
1040
0.0
1040
6.2831853071795862
1070
     1
1071
        0
1070
     0
1070
     1
1071
        1
1040
0.0
1040
0.0
1040
0.0
1002
}
  0
LINE
  5
253
  8
0
 10
-295.40771278770808
 20
468.04215756263108
 30
0.0
 11
-526.25756082531359
 21
468.04215756263108
 31
0.0
1001
REVIT
1002
{
1070
     1
1000
319488
1002
}
1002
{
1070
     5
1000
233013
1002
}
1002
{
1070
     2
1000
-2005028
1002
}
  0
LINE
  5
254
  8
0
 10
-108.5459601297879
 20
222.51675251082679
 30
0.0
 11
-295.40771278770808
 21
468.04215756263108
 31
0.0
1001
REVIT
1002
{
1070
     1
1000
319488
1002
}
1002
{
1070
     5
1000
233013
1002
}
1002
{
1070
     2
1000
-2005028
1002
}
  0
INSERT
  5
256
  8
0
  2
*U29
 10
0.0
 20
0.0
 30
0.0
  0
CIRCLE
  5
257
  8
0
 10
-363.14888275543939
 20
151.40054959138459
 30
0.0
 40
2.5000000000000488
1001
REVIT
1002
{
1070
     1
1000
319489
1002
}
1002
{
1070
     5
1000
233013
1002
}
1002
{
1070
     2
1000
-2005028
1002
}
  0
INSERT
  5
258
  8
0
  6
CONTINUOUS
  2
*U30
 10
0.0
 20
0.0
 30
0.0
1001
REVIT
1002
{
1070
     1
1000
319489
1002
}
1002
{
1070
     5
1000
233013
1002
}
1002
{
1070
     2
1000
-2005028
1002
}
1001
ACAD
1002
{
1000
R14_HATCH_DATA
1000
258
1011
1.0
1021
0.0
1031
0.0000000002328306
1021
0.0
1031
0.0
1011
0.0
1021
0.0
1031
0.0000000002328306
1021
1.0
1031
0.0
1011
0.0
1021
0.0
1031
0.0000000002328306
1021
0.0
1031
1.0
1040
0.0
1010
0.0
1020
0.0
1030
1.0
1000
SOLID
1070
     1
1070
     0
1071
        1
1071
        0
1071
        1
1070
     2
1040
-363.14888275543939
1040
151.40054959138459
1040
2.5000000000000488
1040
0.0
1040
6.2831853071795862
1070
     1
1071
        0
1070
     0
1070
     1
1071
        1
1040
0.0
1040
0.0
1040
0.0
1002
}
  0
LINE
  5
259
  8
0
 10
-424.25724428044362
 20
291.13799478880998
 30
0.0
 11
-574.19297797109277
 21
291.13799478880998
 31
0.0
1001
REVIT
1002
{
1070
     1
1000
319489
1002
}
1002
{
1070
     5
1000
233013
1002
}
1002
{
1070
     2
1000
-2005028
1002
}
  0
LINE
  5
25A
  8
0
 10
-363.14888275543939
 20
151.40054959138459
 30
0.0
 11
-424.25724428044362
 21
291.13799478880998
 31
0.0
1001
REVIT
1002
{
1070
     1
1000
319489
1002
}
1002
{
1070
     5
1000
233013
1002
}
1002
{
1070
     2
1000
-2005028
1002
}
  0
INSERT
  5
25B
  8
0
  2
*U31
 10
0.0
 20
0.0
 30
0.0
  0
CIRCLE
  5
25C
  8
0
 10
-489.30972406980283
 20
53.872406359171691
 30
0.0
 40
2.4999999999999432
1001
REVIT
1002
{
1070
     1
1000
319490
1002
}
1002
{
1070
     5
1000
233011
1002
}
1002
{
1070
     2
1000
-2005028
1002
}
  0
INSERT
  5
25D
  8
0
  6
CONTINUOUS
  2
*U32
 10
0.0
 20
0.0
 30
0.0
1001
REVIT
1002
{
1070
     1
1000
319490
1002
}
1002
{
1070
     5
1000
233011
1002
}
1002
{
1070
     2
1000
-2005028
1002
}
1001
ACAD
1002
{
1000
R14_HATCH_DATA
1000
25D
1011
1.0
1021
0.0
1031
0.0000000002328306
1021
0.0
1031
0.0
1011
0.0
1021
0.0
1031
0.0000000002328306
1021
1.0
1031
0.0
1011
0.0
1021
0.0
1031
0.0000000002328306
1021
0.0
1031
1.0
1040
0.0
1010
0.0
1020
0.0
1030
1.0
1000
SOLID
1070
     1
1070
     0
1071
        1
1071
        0
1071
        1
1070
     2
1040
-489.30972406980283
1040
53.872406359171691
1040
2.4999999999999432
1040
0.0
1040
6.2831853071795862
1070
     1
1071
        0
1070
     0
1070
     1
1071
        1
1040
0.0
1040
0.0
1040
0.0
1002
}
  0
LINE
  5
25E
  8
0
 10
-489.30972406980283
 20
-31.178397945624202
 30
0.0
 11
-520.27251772004672
 21
-31.178397945624202
 31
0.0
1001
REVIT
1002
{
1070
     1
1000
319490
1002
}
1002
{
1070
     5
1000
233011
1002
}
1002
{
1070
     2
1000
-2005028
1002
}
  0
LINE
  5
25F
  8
0
 10
-489.30972406980283
 20
53.872406359171691
 30
0.0
 11
-489.30972406980283
 21
-31.178397945624202
 31
0.0
1001
REVIT
1002
{
1070
     1
1000
319490
1002
}
1002
{
1070
     5
1000
233011
1002
}
1002
{
1070
     2
1000
-2005028
1002
}
  0
INSERT
  5
260
  8
0
  2
*U33
 10
0.0
 20
0.0
 30
0.0
  0
CIRCLE
  5
261
  8
0
 10
-409.36626717916442
 20
-32.885983196113052
 30
0.0
 40
2.5
1001
REVIT
1002
{
1070
     1
1000
319491
1002
}
1002
{
1070
     5
1000
233013
1002
}
1002
{
1070
     2
1000
-2005028
1002
}
  0
INSERT
  5
262
  8
0
  6
CONTINUOUS
  2
*U34
 10
0.0
 20
0.0
 30
0.0
1001
REVIT
1002
{
1070
     1
1000
319491
1002
}
1002
{
1070
     5
1000
233013
1002
}
1002
{
1070
     2
1000
-2005028
1002
}
1001
ACAD
1002
{
1000
R14_HATCH_DATA
1000
262
1011
1.0
1021
0.0
1031
0.0000000002328306
1021
0.0
1031
0.0
1011
0.0
1021
0.0
1031
0.0000000002328306
1021
1.0
1031
0.0
1011
0.0
1021
0.0
1031
0.0000000002328306
1021
0.0
1031
1.0
1040
0.0
1010
0.0
1020
0.0
1030
1.0
1000
SOLID
1070
     1
1070
     0
1071
        1
1071
        0
1071
        1
1070
     2
1040
-409.36626717916442
1040
-32.885983196113052
1040
2.5
1040
0.0
1040
6.2831853071795862
1070
     1
1071
        0
1070
     0
1070
     1
1071
        1
1040
0.0
1040
0.0
1040
0.0
1002
}
  0
LINE
  5
263
  8
0
 10
-409.36626717916442
 20
-104.55227737787629
 30
0.0
 11
-627.26122064891706
 21
-104.55227737787629
 31
0.0
1001
REVIT
1002
{
1070
     1
1000
319491
1002
}
1002
{
1070
     5
1000
233013
1002
}
1002
{
1070
     2
1000
-2005028
1002
}
  0
LINE
  5
264
  8
0
 10
-409.36626717916442
 20
-32.885983196113052
 30
0.0
 11
-409.36626717916442
 21
-104.55227737787629
 31
0.0
1001
REVIT
1002
{
1070
     1
1000
319491
1002
}
1002
{
1070
     5
1000
233013
1002
}
1002
{
1070
     2
1000
-2005028
1002
}
  0
INSERT
  5
265
  8
0
  2
*U35
 10
0.0
 20
0.0
 30
0.0
  0
INSERT
  5
267
  8
0
  2
*U36
 10
0.0
 20
0.0
 30
0.0
  0
DIMENSION
  5
27C
  8
0
  2
DIMBLOCK1-SH130_-_FASCIA_D
 10
-434.07134641029802
 20
171.2768774916982
 30
0.0
 11
-256.00824782662568
 21
252.19439292673559
 31
0.0
 70
     0
  1
<>
 13
-50.990216427524679
 23
259.05383910848042
 33
0.0
 14
-416.49999999999989
 24
122.99999999999891
 34
0.0
 50
20.000000000003631
1001
ACAD
1000
DSTYLE
1002
{
1070
     3
1000
<>mm
1070
    49
1040
390.01031912419228
1002
}
1001
REVIT
1002
{
1070
     1
1000
319497
1002
}
1002
{
1070
     5
1000
261
1002
}
1002
{
1070
     2
1000
-2000260
1002
}
  0
CIRCLE
  5
28B
  8
0
 10
-330.40018809166941
 20
151.40054959138459
 30
0.0
 40
2.5000000000000391
1001
REVIT
1002
{
1070
     1
1000
319502
1002
}
1002
{
1070
     5
1000
233011
1002
}
1002
{
1070
     2
1000
-2005028
1002
}
  0
INSERT
  5
28C
  8
0
  6
CONTINUOUS
  2
*U37
 10
0.0
 20
0.0
 30
0.0
1001
REVIT
1002
{
1070
     1
1000
319502
1002
}
1002
{
1070
     5
1000
233011
1002
}
1002
{
1070
     2
1000
-2005028
1002
}
1001
ACAD
1002
{
1000
R14_HATCH_DATA
1000
28C
1011
1.0
1021
0.0
1031
0.0000000002328306
1021
0.0
1031
0.0
1011
0.0
1021
0.0
1031
0.0000000002328306
1021
1.0
1031
0.0
1011
0.0
1021
0.0
1031
0.0000000002328306
1021
0.0
1031
1.0
1040
0.0
1010
0.0
1020
0.0
1030
1.0
1000
SOLID
1070
     1
1070
     0
1071
        1
1071
        0
1071
        1
1070
     2
1040
-330.40018809166941
1040
151.40054959138459
1040
2.5000000000000391
1040
0.0
1040
6.2831853071795862
1070
     1
1071
        0
1070
     0
1070
     1
1071
        1
1040
0.0
1040
0.0
1040
0.0
1002
}
  0
LINE
  5
28D
  8
0
 10
-404.63867430116778
 20
378.61824145619812
 30
0.0
 11
-495.5224980638074
 21
378.61824145619812
 31
0.0
1001
REVIT
1002
{
1070
     1
1000
319502
1002
}
1002
{
1070
     5
1000
233011
1002
}
1002
{
1070
     2
1000
-2005028
1002
}
  0
LINE
  5
28E
  8
0
 10
-330.40018809166941
 20
151.40054959138459
 30
0.0
 11
-404.63867430116778
 21
378.61824145619812
 31
0.0
1001
REVIT
1002
{
1070
     1
1000
319502
1002
}
1002
{
1070
     5
1000
233011
1002
}
1002
{
1070
     2
1000
-2005028
1002
}
  0
INSERT
  5
28F
  8
0
  2
*U38
 10
0.0
 20
0.0
 30
0.0
  0
DIMENSION
  5
2A0
  8
0
  2
DIMBLOCK2-SH130_-_FASCIA_D
 10
-418.4999999999996
 20
194.16660390199459
 30
0.0
 11
-657.1528030432512
 21
237.1073746135107
 31
0.0
 70
   128
  1
Min.overhang at closest\Xpoint of the tile 50mm
 13
-468.80937540362243
 23
125.6377534611416
 33
0.0
 14
-418.4999999999996
 24
129.2444533974016
 34
0.0
1001
ACAD
1000
DSTYLE
1002
{
1070
    49
1040
50.438492621537307
1002
}
1001
REVIT
1002
{
1070
     1
1000
322510
1002
}
1002
{
1070
     5
1000
261
1002
}
1002
{
1070
     2
1000
-2000260
1002
}
  0
CIRCLE
  5
2AF
  8
0
 10
137.52369968998929
 20
337.99046084382002
 30
0.0
 40
2.500000000000028
1001
REVIT
1002
{
1070
     1
1000
323222
1002
}
1002
{
1070
     5
1000
515860
1002
}
1002
{
1070
     2
1000
-2005028
1002
}
  0
INSERT
  5
2B0
  8
0
  6
CONTINUOUS
  2
*U39
 10
0.0
 20
0.0
 30
0.0
1001
REVIT
1002
{
1070
     1
1000
323222
1002
}
1002
{
1070
     5
1000
515860
1002
}
1002
{
1070
     2
1000
-2005028
1002
}
1001
ACAD
1002
{
1000
R14_HATCH_DATA
1000
2B0
1011
1.0
1021
0.0
1031
0.0000000002328306
1021
0.0
1031
0.0
1011
0.0
1021
0.0
1031
0.0000000002328306
1021
1.0
1031
0.0
1011
0.0
1021
0.0
1031
0.0000000002328306
1021
0.0
1031
1.0
1040
0.0
1010
0.0
1020
0.0
1030
1.0
1000
SOLID
1070
     1
1070
     0
1071
        1
1071
        0
1071
        1
1070
     2
1040
137.52369968998929
1040
337.99046084382002
1040
2.500000000000028
1040
0.0
1040
6.2831853071795862
1070
     1
1071
        0
1070
     0
1070
     1
1071
        1
1040
0.0
1040
0.0
1040
0.0
1002
}
  0
LINE
  5
2B1
  8
0
 10
137.52369968998929
 20
484.63403332806752
 30
0.0
 11
102.5388053850497
 21
484.63403332806752
 31
0.0
1001
REVIT
1002
{
1070
     1
1000
323222
1002
}
1002
{
1070
     5
1000
515860
1002
}
1002
{
1070
     2
1000
-2005028
1002
}
  0
LINE
  5
2B2
  8
0
 10
137.52369968998929
 20
337.99046084382002
 30
0.0
 11
137.52369968998929
 21
484.63403332806752
 31
0.0
1001
REVIT
1002
{
1070
     1
1000
323222
1002
}
1002
{
1070
     5
1000
515860
1002
}
1002
{
1070
     2
1000
-2005028
1002
}
  0
INSERT
  5
2B3
  8
0
  2
*U40
 10
0.0
 20
0.0
 30
0.0
  0
CIRCLE
  5
2B4
  8
0
 10
20.888611446252369
 20
274.22068095894372
 30
0.0
 40
2.500000000000004
1001
REVIT
1002
{
1070
     1
1000
323578
1002
}
1002
{
1070
     5
1000
233013
1002
}
1002
{
1070
     2
1000
-2005028
1002
}
  0
INSERT
  5
2B5
  8
0
  6
CONTINUOUS
  2
*U41
 10
0.0
 20
0.0
 30
0.0
1001
REVIT
1002
{
1070
     1
1000
323578
1002
}
1002
{
1070
     5
1000
233013
1002
}
1002
{
1070
     2
1000
-2005028
1002
}
1001
ACAD
1002
{
1000
R14_HATCH_DATA
1000
2B5
1011
1.0
1021
0.0
1031
0.0000000002328306
1021
0.0
1031
0.0
1011
0.0
1021
0.0
1031
0.0000000002328306
1021
1.0
1031
0.0
1011
0.0
1021
0.0
1031
0.0000000002328306
1021
0.0
1031
1.0
1040
0.0
1010
0.0
1020
0.0
1030
1.0
1000
SOLID
1070
     1
1070
     0
1071
        1
1071
        0
1071
        1
1070
     2
1040
20.888611446252369
1040
274.22068095894372
1040
2.500000000000004
1040
0.0
1040
6.2831853071795862
1070
     1
1071
        0
1070
     0
1070
     1
1071
        1
1040
0.0
1040
0.0
1040
0.0
1002
}
  0
LINE
  5
2B6
  8
0
 10
-295.40771278770808
 20
468.04215756263108
 30
0.0
 11
-526.25756082531359
 21
468.04215756263108
 31
0.0
1001
REVIT
1002
{
1070
     1
1000
323578
1002
}
1002
{
1070
     5
1000
233013
1002
}
1002
{
1070
     2
1000
-2005028
1002
}
  0
LINE
  5
2B7
  8
0
 10
20.888611446252369
 20
274.22068095894372
 30
0.0
 11
-295.40771278770808
 21
468.04215756263108
 31
0.0
1001
REVIT
1002
{
1070
     1
1000
323578
1002
}
1002
{
1070
     5
1000
233013
1002
}
1002
{
1070
     2
1000
-2005028
1002
}
  0
INSERT
  5
2B8
  8
0
  2
*U42
 10
0.0
 20
0.0
 30
0.0
  0
CIRCLE
  5
2B9
  8
0
 10
-309.3581803801199
 20
155.14474423545391
 30
0.0
 40
2.5000000000000169
1001
REVIT
1002
{
1070
     1
1000
323580
1002
}
1002
{
1070
     5
1000
233013
1002
}
1002
{
1070
     2
1000
-2005028
1002
}
  0
INSERT
  5
2BA
  8
0
  6
CONTINUOUS
  2
*U43
 10
0.0
 20
0.0
 30
0.0
1001
REVIT
1002
{
1070
     1
1000
323580
1002
}
1002
{
1070
     5
1000
233013
1002
}
1002
{
1070
     2
1000
-2005028
1002
}
1001
ACAD
1002
{
1000
R14_HATCH_DATA
1000
2BA
1011
1.0
1021
0.0
1031
0.0000000002328306
1021
0.0
1031
0.0
1011
0.0
1021
0.0
1031
0.0000000002328306
1021
1.0
1031
0.0
1011
0.0
1021
0.0
1031
0.0000000002328306
1021
0.0
1031
1.0
1040
0.0
1010
0.0
1020
0.0
1030
1.0
1000
SOLID
1070
     1
1070
     0
1071
        1
1071
        0
1071
        1
1070
     2
1040
-309.3581803801199
1040
155.14474423545391
1040
2.5000000000000169
1040
0.0
1040
6.2831853071795862
1070
     1
1071
        0
1070
     0
1070
     1
1071
        1
1040
0.0
1040
0.0
1040
0.0
1002
}
  0
LINE
  5
2BB
  8
0
 10
-295.40771278770808
 20
468.04215756263108
 30
0.0
 11
-526.25756082531359
 21
468.04215756263108
 31
0.0
1001
REVIT
1002
{
1070
     1
1000
323580
1002
}
1002
{
1070
     5
1000
233013
1002
}
1002
{
1070
     2
1000
-2005028
1002
}
  0
LINE
  5
2BC
  8
0
 10
-309.3581803801199
 20
155.14474423545391
 30
0.0
 11
-295.40771278770808
 21
468.04215756263108
 31
0.0
1001
REVIT
1002
{
1070
     1
1000
323580
1002
}
1002
{
1070
     5
1000
233013
1002
}
1002
{
1070
     2
1000
-2005028
1002
}
  0
INSERT
  5
2BD
  8
0
  2
*U44
 10
0.0
 20
0.0
 30
0.0
  0
CIRCLE
  5
2BE
  8
0
 10
59.659515937089857
 20
247.2956920235406
 30
0.0
 40
2.499999999999992
1001
REVIT
1002
{
1070
     1
1000
559664
1002
}
1002
{
1070
     5
1000
233013
1002
}
1002
{
1070
     2
1000
-2005028
1002
}
  0
INSERT
  5
2BF
  8
0
  6
CONTINUOUS
  2
*U45
 10
0.0
 20
0.0
 30
0.0
1001
REVIT
1002
{
1070
     1
1000
559664
1002
}
1002
{
1070
     5
1000
233013
1002
}
1002
{
1070
     2
1000
-2005028
1002
}
1001
ACAD
1002
{
1000
R14_HATCH_DATA
1000
2BF
1011
1.0
1021
0.0
1031
0.0000000002328306
1021
0.0
1031
0.0
1011
0.0
1021
0.0
1031
0.0000000002328306
1021
1.0
1031
0.0
1011
0.0
1021
0.0
1031
0.0000000002328306
1021
0.0
1031
1.0
1040
0.0
1010
0.0
1020
0.0
1030
1.0
1000
SOLID
1070
     1
1070
     0
1071
        1
1071
        0
1071
        1
1070
     2
1040
59.659515937089857
1040
247.2956920235406
1040
2.499999999999992
1040
0.0
1040
6.2831853071795862
1070
     1
1071
        0
1070
     0
1070
     1
1071
        1
1040
0.0
1040
0.0
1040
0.0
1002
}
  0
LINE
  5
2C0
  8
0
 10
59.659515937089857
 20
444.52653986471228
 30
0.0
 11
1.0130538376870091
 21
444.52653986471222
 31
0.0
1001
REVIT
1002
{
1070
     1
1000
559664
1002
}
1002
{
1070
     5
1000
233013
1002
}
1002
{
1070
     2
1000
-2005028
1002
}
  0
LINE
  5
2C1
  8
0
 10
59.659515937089857
 20
247.2956920235406
 30
0.0
 11
59.659515937089857
 21
444.52653986471228
 31
0.0
1001
REVIT
1002
{
1070
     1
1000
559664
1002
}
1002
{
1070
     5
1000
233013
1002
}
1002
{
1070
     2
1000
-2005028
1002
}
  0
INSERT
  5
2C2
  8
0
  2
*U46
 10
0.0
 20
0.0
 30
0.0
  0
CIRCLE
  5
2C3
  8
0
 10
-443.29944995984812
 20
123.9527903510938
 30
0.0
 40
2.499999999999952
1001
REVIT
1002
{
1070
     1
1000
591836
1002
}
1002
{
1070
     5
1000
233013
1002
}
1002
{
1070
     2
1000
-2005028
1002
}
  0
INSERT
  5
2C4
  8
0
  6
CONTINUOUS
  2
*U47
 10
0.0
 20
0.0
 30
0.0
1001
REVIT
1002
{
1070
     1
1000
591836
1002
}
1002
{
1070
     5
1000
233013
1002
}
1002
{
1070
     2
1000
-2005028
1002
}
1001
ACAD
1002
{
1000
R14_HATCH_DATA
1000
2C4
1011
1.0
1021
0.0
1031
0.0000000002328306
1021
0.0
1031
0.0
1011
0.0
1021
0.0
1031
0.0000000002328306
1021
1.0
1031
0.0
1011
0.0
1021
0.0
1031
0.0000000002328306
1021
0.0
1031
1.0
1040
0.0
1010
0.0
1020
0.0
1030
1.0
1000
SOLID
1070
     1
1070
     0
1071
        1
1071
        0
1071
        1
1070
     2
1040
-443.29944995984812
1040
123.9527903510938
1040
2.499999999999952
1040
0.0
1040
6.2831853071795862
1070
     1
1071
        0
1070
     0
1070
     1
1071
        1
1040
0.0
1040
0.0
1040
0.0
1002
}
  0
LINE
  5
2C5
  8
0
 10
-480.68166499826839
 20
156.13799478881
 30
0.0
 11
-603.90778968657423
 21
156.13799478881
 31
0.0
1001
REVIT
1002
{
1070
     1
1000
591836
1002
}
1002
{
1070
     5
1000
233013
1002
}
1002
{
1070
     2
1000
-2005028
1002
}
  0
LINE
  5
2C6
  8
0
 10
-443.29944995984812
 20
123.9527903510938
 30
0.0
 11
-480.68166499826839
 21
156.13799478881
 31
0.0
1001
REVIT
1002
{
1070
     1
1000
591836
1002
}
1002
{
1070
     5
1000
233013
1002
}
1002
{
1070
     2
1000
-2005028
1002
}
  0
INSERT
  5
2C7
  8
0
  2
*U48
 10
0.0
 20
0.0
 30
0.0
  0
LINE
  5
32C
  8
0
 10
200.0453782280415
 20
397.07633926360461
 30
0.0
 11
200.04537822804161
 21
300.63033240520468
 31
0.0
  0
LINE
  5
32D
  8
0
 10
200.04537822804181
 20
197.07633926360461
 30
0.0
 11
200.04537822804161
 21
293.52234612200448
 31
0.0
  0
LINE
  5
32E
  8
0
 10
200.0453782280415
 20
397.07633926360461
 30
0.0
 11
200.04537822804161
 21
300.63033240520468
 31
0.0
  0
LINE
  5
32F
  8
0
 10
200.04537822804161
 20
300.63033240520468
 30
0.0
 11
189.73775906716071
 21
298.81282104027389
 31
0.0
  0
LINE
  5
330
  8
0
 10
189.73775906716071
 20
298.81282104027389
 30
0.0
 11
210.35299738892249
 21
295.33985748693527
 31
0.0
  0
LINE
  5
331
  8
0
 10
210.35299738892249
 20
295.33985748693527
 30
0.0
 11
200.04537822804161
 21
293.52234612200448
 31
0.0
  0
LINE
  5
332
  8
0
 10
200.04537822804161
 20
293.52234612200448
 30
0.0
 11
200.04537822804181
 21
197.07633926360461
 31
0.0
  0
LINE
  5
333
  8
0
 10
119.99999999999859
 20
-238.78154087428589
 30
0.0
 11
23.55399314159871
 21
-238.78154087428589
 31
0.0
  0
LINE
  5
334
  8
0
 10
-80.000000000001407
 20
-238.78154087428589
 30
0.0
 11
16.446006858398508
 21
-238.78154087428589
 31
0.0
  0
LINE
  5
335
  8
0
 10
119.99999999999859
 20
-238.78154087428589
 30
0.0
 11
23.55399314159871
 21
-238.78154087428589
 31
0.0
  0
LINE
  5
336
  8
0
 10
23.55399314159871
 20
-238.78154087428589
 30
0.0
 11
21.736481776667919
 21
-228.47392171340491
 31
0.0
  0
LINE
  5
337
  8
0
 10
21.736481776667919
 20
-228.47392171340491
 30
0.0
 11
18.263518223329289
 21
-249.08916003516671
 31
0.0
  0
LINE
  5
338
  8
0
 10
18.263518223329289
 20
-249.08916003516671
 30
0.0
 11
16.446006858398508
 21
-238.78154087428589
 31
0.0
  0
LINE
  5
339
  8
0
 10
16.446006858398508
 20
-238.78154087428589
 30
0.0
 11
-80.000000000001407
 21
-238.78154087428589
 31
0.0
  0
LINE
  5
33A
  8
0
 10
-456.79018339091431
 20
119.9999999999995
 30
0.0
 11
-340.87908423622622
 21
151.05828541230201
 31
0.0
1001
REVIT
1002
{
1070
     3
1000
578786
1002
}
  0
LINE
  5
33B
  8
0
  6
DASH
 10
-98.875046530650934
 20
238.92740617659399
 30
0.0
 11
-41.041598175825229
 21
231.82635161484581
 31
0.0
1001
REVIT
1002
{
1070
     3
1000
217411
1002
}
  0
LINE
  5
33C
  8
0
  6
DASH
 10
-41.041598175825008
 20
231.82635161484561
 30
0.0
 11
207.11729027195051
 21
322.14880037842272
 31
0.0
1001
REVIT
1002
{
1070
     3
1000
217411
1002
}
  0
LINE
  5
33D
  8
0
 10
-1.999999999999545
 20
-10.999999999999661
 30
0.0
 11
-402.3333333333332
 21
-10.999999999999661
 31
0.0
1001
REVIT
1002
{
1070
     3
1000
211597
1002
}
  0
LINE
  5
33E
  8
0
 10
-402.3333333333332
 20
-16.999999999999829
 30
0.0
 11
-1.999999999999545
 21
-16.999999999999829
 31
0.0
1001
REVIT
1002
{
1070
     3
1000
211597
1002
}
  0
LINE
  5
33F
  8
0
 10
-1.999999999999545
 20
-11.000000000000121
 30
0.0
 11
-1.999999999999545
 21
-17.000000000000121
 31
0.0
1001
REVIT
1002
{
1070
     3
1000
211597
1002
}
  0
LINE
  5
340
  8
0
 10
-402.3333333333332
 20
-10.999999999999719
 30
0.0
 11
-402.3333333333332
 21
-16.99999999999989
 31
0.0
1001
REVIT
1002
{
1070
     3
1000
211597
1002
}
  0
ARC
  5
341
  8
0
 10
11.002293692323921
 20
300.98469174880842
 30
0.0
 40
0.9999999999999391
 50
108.27254465489411
 51
194.4462351679887
1001
REVIT
1002
{
1070
     3
1000
224528
1002
}
  0
LINE
  5
342
  8
0
 10
47.450075510115603
 20
314.07237243040618
 30
0.0
 11
10.688756223946241
 21
301.93426757828342
 31
0.0
1001
REVIT
1002
{
1070
     3
1000
224528
1002
}
  0
ARC
  5
343
  8
0
 10
48.077150446870917
 20
312.17322077145627
 30
0.0
 40
1.999999999999714
 50
81.707493477814907
 51
108.2725446548943
1001
REVIT
1002
{
1070
     3
1000
224528
1002
}
  0
LINE
  5
344
  8
0
 10
73.623387481336991
 20
314.18634663029468
 30
0.0
 11
48.365604014441139
 21
314.15231009216791
 31
0.0
1001
REVIT
1002
{
1070
     3
1000
224528
1002
}
  0
LINE
  5
345
  8
0
 10
287.90782114665882
 20
384.94025248878131
 30
0.0
 11
47.450075510080133
 21
314.07237243039572
 31
0.0
1001
REVIT
1002
{
1070
     3
1000
211597
1002
}
  0
LINE
  5
346
  8
0
 10
57.773998387008731
 20
305.74500240750541
 30
0.0
 11
92.545466371919275
 21
317.22608449211549
 31
0.0
1001
REVIT
1002
{
1070
     3
1000
224528
1002
}
  0
LINE
  5
347
  8
0
 10
92.545466371919275
 20
317.22608449211549
 30
0.0
 11
104.22788660601211
 21
317.62793235575879
 31
0.0
1001
REVIT
1002
{
1070
     3
1000
224528
1002
}
  0
LINE
  5
348
  8
0
 10
104.22788660601211
 20
317.62793235575879
 30
0.0
 11
138.36263194973671
 21
328.89877698615049
 31
0.0
1001
REVIT
1002
{
1070
     3
1000
224528
1002
}
  0
ARC
  5
349
  8
0
 10
47.775638539494643
 20
299.03331497464461
 30
0.0
 40
0.9999999999999333
 50
291.8718339389979
 51
18.272544654911929
1001
REVIT
1002
{
1070
     3
1000
224528
1002
}
  0
ARC
  5
34A
  8
0
 10
46.80000621973349
 20
301.89399005216927
 30
0.0
 40
1.0000000000000291
 50
9.537908389662709
 51
96.415643670410248
1001
REVIT
1002
{
1070
     3
1000
224528
1002
}
  0
ARC
  5
34B
  8
0
 10
18.306009620039308
 20
295.60957034904249
 30
0.0
 40
0.9999999999999362
 50
198.27254465489119
 51
286.35040290285792
1001
REVIT
1002
{
1070
     3
1000
224528
1002
}
  0
LINE
  5
34C
  8
0
 10
16.729358853808911
 20
297.19518453961518
 30
0.0
 11
17.35643379056426
 21
295.296032880665
 31
0.0
1001
REVIT
1002
{
1070
     3
1000
224528
1002
}
  0
ARC
  5
34D
  8
0
 10
17.678934683283948
 20
297.5087220079929
 30
0.0
 40
0.9999999999999424
 50
108.27254465489411
 51
198.27254465489119
1001
REVIT
1002
{
1070
     3
1000
224528
1002
}
  0
LINE
  5
34E
  8
0
 10
49.257256206519287
 20
308.98857084959428
 30
0.0
 11
17.36539721490627
 21
298.45829783746791
 31
0.0
1001
REVIT
1002
{
1070
     3
1000
224528
1002
}
  0
LINE
  5
34F
  8
0
 10
56.598759035859828
 20
305.72074153275611
 30
0.0
 11
49.25725620651928
 21
308.98857084959428
 31
0.0
1001
REVIT
1002
{
1070
     3
1000
224528
1002
}
  0
LINE
  5
350
  8
0
 10
47.78618240558329
 20
302.05969017426582
 30
0.0
 11
48.725214368969603
 21
299.3468524430225
 31
0.0
1001
REVIT
1002
{
1070
     3
1000
224528
1002
}
  0
LINE
  5
351
  8
0
 10
15.06526895705548
 20
288.39957851651337
 30
0.0
 11
48.148170161530821
 21
298.10529547561288
 31
0.0
1001
REVIT
1002
{
1070
     3
1000
224528
1002
}
  0
ARC
  5
352
  8
0
 10
14.83837253958326
 20
289.3734974123862
 30
0.0
 40
0.9999999999999863
 50
197.36374100933989
 51
283.11441943375291
1001
REVIT
1002
{
1070
     3
1000
224528
1002
}
  0
LINE
  5
353
  8
0
 10
10.03391152830811
 20
300.73522033879129
 30
0.0
 11
13.883943157551769
 21
289.0750605602467
 31
0.0
1001
REVIT
1002
{
1070
     3
1000
224528
1002
}
  0
LINE
  5
354
  8
0
 10
18.58923820727675
 20
294.64415755065318
 30
0.0
 11
46.688265959696842
 21
302.88772749953
 31
0.0
1001
REVIT
1002
{
1070
     3
1000
224528
1002
}
  0
ARC
  5
355
  8
0
 10
57.146923450253368
 20
307.64415406645543
 30
0.0
 40
1.9999999999998439
 50
254.09267282113049
 51
288.27254465489409
1001
REVIT
1002
{
1070
     3
1000
224528
1002
}
  0
LINE
  5
356
  8
0
 10
287.9078211466707
 20
384.94025248878478
 30
0.0
 11
73.623387481336835
 21
314.18634663029468
 31
0.0
1001
REVIT
1002
{
1070
     3
1000
224528
1002
}
  0
LINE
  5
357
  8
0
  6
DASH
 10
-324.36587237078419
 20
157.4375490196669
 30
0.0
 11
-443.52723109950938
 21
127.7272854317541
 31
0.0
1001
REVIT
1002
{
1070
     3
1000
217411
1002
}
  0
ARC
  5
358
  8
0
 10
-467.90929489088171
 20
126.07347707833959
 30
0.0
 40
0.9999999999999428
 50
108.4162399189365
 51
198.4162399189247
1001
REVIT
1002
{
1070
     3
1000
224528
1002
}
  0
LINE
  5
359
  8
0
 10
-431.67049535565968
 20
139.19390832567441
 30
0.0
 11
-468.2252128646154
 21
127.02226358428921
 31
0.0
1001
REVIT
1002
{
1070
     3
1000
224528
1002
}
  0
ARC
  5
35A
  8
0
 10
-431.03865940819247
 20
137.29633531377559
 30
0.0
 40
1.9999999999997149
 50
81.851188741855964
 51
108.4162399189365
1001
REVIT
1002
{
1070
     3
1000
224528
1002
}
  0
LINE
  5
35B
  8
0
 10
-420.11272376634201
 20
135.14875118243069
 30
0.0
 11
-430.75517021048341
 21
139.27614183835851
 31
0.0
1001
REVIT
1002
{
1070
     3
1000
224528
1002
}
  0
LINE
  5
35C
  8
0
 10
-191.39123924077541
 20
210.6646221983147
 30
0.0
 11
-420.11272376634201
 21
135.14875118243069
 31
0.0
1001
REVIT
1002
{
1070
     3
1000
224528
1002
}
  0
LINE
  5
35D
  8
0
 10
-191.39123924078061
 20
210.66462219831331
 30
0.0
 11
-431.67049535571232
 21
139.19390832565881
 31
0.0
1001
REVIT
1002
{
1070
     3
1000
211597
1002
}
  0
ARC
  5
35E
  8
0
 10
-431.3072161031734
 20
124.1557146632525
 30
0.0
 40
0.9999999999999301
 50
292.01552920303999
 51
18.416239918939649
1001
REVIT
1002
{
1070
     3
1000
224528
1002
}
  0
LINE
  5
35F
  8
0
 10
-463.9908139045254
 20
113.4399755828061
 30
0.0
 11
-430.93235822357332
 21
123.2286323745091
 31
0.0
1001
REVIT
1002
{
1070
     3
1000
224528
1002
}
  0
ARC
  5
360
  8
0
 10
-464.22015215109542
 20
114.4133223702668
 30
0.0
 40
0.9999999999999868
 50
197.5074362733618
 51
283.25811469779558
1001
REVIT
1002
{
1070
     3
1000
224528
1002
}
  0
LINE
  5
361
  8
0
 10
-468.80937540362243
 20
125.6377534611416
 30
0.0
 11
-465.173830065971
 21
114.1124927928005
 31
0.0
1001
REVIT
1002
{
1070
     3
1000
224528
1002
}
  0
ARC
  5
362
  8
0
 10
-228.5442747480821
 20
213.4501228995986
 30
0.0
 40
0.9999999999999391
 50
108.4173601569867
 51
194.59105067008369
1001
REVIT
1002
{
1070
     3
1000
224528
1002
}
  0
LINE
  5
363
  8
0
 10
-192.12968852328521
 20
226.62988371448631
 30
0.0
 11
-228.86021127227971
 21
214.3989032285883
 31
0.0
1001
REVIT
1002
{
1070
     3
1000
224528
1002
}
  0
ARC
  5
364
  8
0
 10
-191.49781547489019
 20
224.732323056507
 30
0.0
 40
1.999999999999714
 50
81.852308979907789
 51
108.4173601569867
1001
REVIT
1002
{
1070
     3
1000
224528
1002
}
  0
LINE
  5
365
  8
0
 10
-165.9567482237332
 20
226.8100107174721
 30
0.0
 11
-191.21436498610049
 21
226.71213512344769
 31
0.0
1001
REVIT
1002
{
1070
     3
1000
224528
1002
}
  0
LINE
  5
366
  8
0
 10
48.148170161518948
 20
298.10529547560878
 30
0.0
 11
-192.12968852332071
 21
226.62988371447571
 31
0.0
1001
REVIT
1002
{
1070
     3
1000
211597
1002
}
  0
LINE
  5
367
  8
0
 10
-181.7847511562228
 20
218.32863405326671
 30
0.0
 11
-147.04241272452799
 21
229.89756451190419
 31
0.0
1001
REVIT
1002
{
1070
     3
1000
224528
1002
}
  0
LINE
  5
368
  8
0
 10
-147.04241272452799
 20
229.89756451190419
 30
0.0
 11
-135.3610454781136
 21
230.32893846319951
 31
0.0
1001
REVIT
1002
{
1070
     3
1000
224528
1002
}
  0
LINE
  5
369
  8
0
 10
-135.3610454781136
 20
230.32893846319951
 30
0.0
 11
-101.25489627768179
 21
241.686022819725
 31
0.0
1001
REVIT
1002
{
1070
     3
1000
224528
1002
}
  0
ARC
  5
36A
  8
0
 10
-191.76611524647569
 20
211.59169715771731
 30
0.0
 40
0.9999999999999333
 50
292.01664944109262
 51
18.41736015700582
1001
REVIT
1002
{
1070
     3
1000
224528
1002
}
  0
ARC
  5
36B
  8
0
 10
-192.7489748194246
 20
214.4498971826275
 30
0.0
 40
1.0000000000000291
 50
9.6827238917555682
 51
96.560459172502831
1001
REVIT
1002
{
1070
     3
1000
224528
1002
}
  0
ARC
  5
36C
  8
0
 10
-221.2269965052779
 20
208.0934788445611
 30
0.0
 40
0.9999999999999362
 50
198.41736015698359
 51
286.49521840495152
1001
REVIT
1002
{
1070
     3
1000
224528
1002
}
  0
LINE
  5
36D
  8
0
 10
-222.8076498826627
 20
209.6751029783434
 30
0.0
 11
-222.17577683426759
 21
207.77754232036361
 31
0.0
1001
REVIT
1002
{
1070
     3
1000
224528
1002
}
  0
ARC
  5
36E
  8
0
 10
-221.858869553673
 20
209.9910395025409
 30
0.0
 40
0.9999999999999424
 50
108.4173601569867
 51
198.41736015698359
1001
REVIT
1002
{
1070
     3
1000
224528
1002
}
  0
LINE
  5
36F
  8
0
 10
-190.30966426725331
 20
221.550666029648
 30
0.0
 11
-222.1748060778705
 21
210.9398198315306
 31
0.0
1001
REVIT
1002
{
1070
     3
1000
224528
1002
}
  0
LINE
  5
370
  8
0
 10
-182.95992543401371
 20
218.3014028331105
 30
0.0
 11
-190.30966426725331
 21
221.550666029648
 31
0.0
1001
REVIT
1002
{
1070
     3
1000
224528
1002
}
  0
LINE
  5
371
  8
0
 10
-191.76322059139
 20
214.61808934032791
 30
0.0
 11
-190.81733491748611
 21
211.90763368191509
 31
0.0
1001
REVIT
1002
{
1070
     3
1000
224528
1002
}
  0
LINE
  5
372
  8
0
 10
-224.44950352913901
 20
200.8753190547657
 30
0.0
 11
-191.39123924078049
 21
210.6646221983134
 31
0.0
1001
REVIT
1002
{
1070
     3
1000
224528
1002
}
  0
ARC
  5
373
  8
0
 10
-224.6788608063882
 20
201.8486613580551
 30
0.0
 40
0.9999999999999863
 50
197.50855651143459
 51
283.25923493584639
1001
REVIT
1002
{
1070
     3
1000
224528
1002
}
  0
LINE
  5
374
  8
0
 10
-229.51202327880151
 20
213.19820469602769
 30
0.0
 11
-225.63253283930891
 21
201.54781313448561
 31
0.0
1001
REVIT
1002
{
1070
     3
1000
224528
1002
}
  0
LINE
  5
375
  8
0
 10
-220.94132873739741
 20
207.1287849914053
 30
0.0
 11
-192.8632263985443
 21
215.44334903182229
 31
0.0
1001
REVIT
1002
{
1070
     3
1000
224528
1002
}
  0
ARC
  5
376
  8
0
 10
-182.41662420461799
 20
220.22619471124599
 30
0.0
 40
1.9999999999998439
 50
254.2374883232234
 51
288.41736015698677
1001
REVIT
1002
{
1070
     3
1000
224528
1002
}
  0
LINE
  5
377
  8
0
 10
48.148170161530892
 20
298.10529547561242
 30
0.0
 11
-165.95674822373331
 21
226.8100107174721
 31
0.0
1001
REVIT
1002
{
1070
     3
1000
224528
1002
}
  0
LINE
  5
378
  8
0
 10
-128.42201888788739
 20
235.35551960372879
 30
0.0
 11
-132.1807893710322
 21
233.98743903042541
 31
0.0
1001
REVIT
1002
{
1070
     3
1000
211597
1002
}
  0
LINE
  5
379
  8
0
 10
-119.99847869845109
 20
207.8263265411461
 30
0.0
 11
-129.57504271157151
 21
234.13771992315091
 31
0.0
1001
REVIT
1002
{
1070
     3
1000
211597
1002
}
  0
LINE
  5
37A
  8
0
 10
-119.7842847221936
 20
205.77593122791109
 30
0.0
 11
-119.99847869845109
 21
207.8263265411461
 31
0.0
1001
REVIT
1002
{
1070
     3
1000
211597
1002
}
  0
LINE
  5
37B
  8
0
 10
-120.938171319237
 20
207.4843063978204
 30
0.0
 11
-119.7842847221936
 21
205.77593122791109
 31
0.0
1001
REVIT
1002
{
1070
     3
1000
211597
1002
}
  0
LINE
  5
37C
  8
0
 10
-130.51473533235739
 20
233.7956997798253
 30
0.0
 11
-120.938171319237
 21
207.4843063978204
 31
0.0
1001
REVIT
1002
{
1070
     3
1000
211597
1002
}
  0
LINE
  5
37D
  8
0
 10
-131.64223824788979
 20
233.385322279523
 30
0.0
 11
-130.51473533235739
 21
233.7956997798253
 31
0.0
1001
REVIT
1002
{
1070
     3
1000
211597
1002
}
  0
LINE
  5
37E
  8
0
 10
-129.57504271157151
 20
234.13771992315091
 30
0.0
 11
-128.44753979603951
 21
234.5480974234531
 31
0.0
1001
REVIT
1002
{
1070
     3
1000
211597
1002
}
  0
LINE
  5
37F
  8
0
 10
-128.42201888788739
 20
235.35551960372879
 30
0.0
 11
-128.44753979603951
 21
234.5480974234531
 31
0.0
1001
REVIT
1002
{
1070
     3
1000
211597
1002
}
  0
LINE
  5
380
  8
0
 10
-132.1807893710322
 20
233.98743903042541
 30
0.0
 11
-131.64223824788979
 21
233.385322279523
 31
0.0
1001
REVIT
1002
{
1070
     3
1000
211597
1002
}
  0
LINE
  5
381
  8
0
 10
76.670033551109071
 20
310.98662125380582
 30
0.0
 11
72.911263067964242
 21
309.61854068050241
 31
0.0
1001
REVIT
1002
{
1070
     3
1000
211597
1002
}
  0
LINE
  5
382
  8
0
 10
85.093573740545366
 20
283.45742819122307
 30
0.0
 11
75.517009727424963
 21
309.76882157322802
 31
0.0
1001
REVIT
1002
{
1070
     3
1000
211597
1002
}
  0
LINE
  5
383
  8
0
 10
85.307767716802815
 20
281.40703287798812
 30
0.0
 11
85.093573740545366
 21
283.45742819122307
 31
0.0
1001
REVIT
1002
{
1070
     3
1000
211597
1002
}
  0
LINE
  5
384
  8
0
 10
84.153881119759475
 20
283.1154080478974
 30
0.0
 11
85.307767716802815
 21
281.40703287798812
 31
0.0
1001
REVIT
1002
{
1070
     3
1000
211597
1002
}
  0
LINE
  5
385
  8
0
 10
74.577317106639086
 20
309.42680142990218
 30
0.0
 11
84.153881119759475
 21
283.1154080478974
 31
0.0
1001
REVIT
1002
{
1070
     3
1000
211597
1002
}
  0
LINE
  5
386
  8
0
 10
73.449814191106654
 20
309.01642392960002
 30
0.0
 11
74.577317106639086
 21
309.42680142990218
 31
0.0
1001
REVIT
1002
{
1070
     3
1000
211597
1002
}
  0
LINE
  5
387
  8
0
 10
75.517009727424963
 20
309.76882157322802
 30
0.0
 11
76.644512642956968
 21
310.17919907353013
 31
0.0
1001
REVIT
1002
{
1070
     3
1000
211597
1002
}
  0
LINE
  5
388
  8
0
 10
76.670033551109071
 20
310.98662125380582
 30
0.0
 11
76.644512642956968
 21
310.17919907353013
 31
0.0
1001
REVIT
1002
{
1070
     3
1000
211597
1002
}
  0
LINE
  5
389
  8
0
 10
72.911263067964242
 20
309.61854068050241
 30
0.0
 11
73.449814191106654
 21
309.01642392960002
 31
0.0
1001
REVIT
1002
{
1070
     3
1000
211597
1002
}
  0
LINE
  5
38A
  8
0
 10
-365.2328785930452
 20
150.29397892969399
 30
0.0
 11
-368.99164907619007
 21
148.9258983563906
 31
0.0
1001
REVIT
1002
{
1070
     3
1000
211597
1002
}
  0
LINE
  5
38B
  8
0
 10
-356.80933840360899
 20
122.7647858671113
 30
0.0
 11
-366.38590241672938
 21
149.07617924911611
 31
0.0
1001
REVIT
1002
{
1070
     3
1000
211597
1002
}
  0
LINE
  5
38C
  8
0
 10
-356.59514442735161
 20
120.7143905538763
 30
0.0
 11
-356.80933840360899
 21
122.7647858671113
 31
0.0
1001
REVIT
1002
{
1070
     3
1000
211597
1002
}
  0
LINE
  5
38D
  8
0
 10
-357.74903102439492
 20
122.4227657237856
 30
0.0
 11
-356.59514442735161
 21
120.7143905538763
 31
0.0
1001
REVIT
1002
{
1070
     3
1000
211597
1002
}
  0
LINE
  5
38E
  8
0
 10
-367.3255950375152
 20
148.73415910579041
 30
0.0
 11
-357.74903102439492
 21
122.4227657237856
 31
0.0
1001
REVIT
1002
{
1070
     3
1000
211597
1002
}
  0
LINE
  5
38F
  8
0
 10
-368.45309795304769
 20
148.32378160548819
 30
0.0
 11
-367.3255950375152
 21
148.73415910579041
 31
0.0
1001
REVIT
1002
{
1070
     3
1000
211597
1002
}
  0
LINE
  5
390
  8
0
 10
-366.38590241672938
 20
149.07617924911611
 30
0.0
 11
-365.2583995011974
 21
149.48655674941821
 31
0.0
1001
REVIT
1002
{
1070
     3
1000
211597
1002
}
  0
LINE
  5
391
  8
0
 10
-365.2328785930452
 20
150.29397892969399
 30
0.0
 11
-365.2583995011974
 21
149.48655674941821
 31
0.0
1001
REVIT
1002
{
1070
     3
1000
211597
1002
}
  0
LINE
  5
392
  8
0
 10
-368.99164907619007
 20
148.9258983563906
 30
0.0
 11
-368.45309795304769
 21
148.32378160548819
 31
0.0
1001
REVIT
1002
{
1070
     3
1000
211597
1002
}
  0
ARC
  5
393
  8
0
 10
-102.04768985196689
 20
234.00517658771849
 30
0.0
 40
2.0000000000000022
 50
20.000000000003709
 51
110.00000000000369
1001
REVIT
1002
{
1070
     3
1000
224526
1002
}
  0
ARC
  5
394
  8
0
 10
-239.2428124867063
 20
184.0702356621623
 30
0.0
 40
1.999999999999998
 50
110.00000000000369
 51
200.00000000000369
1001
REVIT
1002
{
1070
     3
1000
224526
1002
}
  0
ARC
  5
395
  8
0
 10
-232.06038947686599
 20
164.3366906256586
 30
0.0
 40
2.0
 50
200.00000000000369
 51
290.00000000000313
1001
REVIT
1002
{
1070
     3
1000
224526
1002
}
  0
ARC
  5
396
  8
0
 10
-94.865266842126545
 20
214.27163155121499
 30
0.0
 40
2.0
 50
290.00000000000369
 51
20.000000000003709
1001
REVIT
1002
{
1070
     3
1000
224526
1002
}
  0
LINE
  5
397
  8
0
 10
-102.7317301386183
 20
235.88456182929031
 30
0.0
 11
-126.99639580747611
 21
227.05294578140339
 31
0.0
1001
REVIT
1002
{
1070
     3
1000
224526
1002
}
  0
LINE
  5
398
  8
0
 10
-127.9360884282619
 20
226.7109256380777
 30
0.0
 11
-239.92685277335781
 21
185.949620903734
 31
0.0
1001
REVIT
1002
{
1070
     3
1000
224526
1002
}
  0
LINE
  5
399
  8
0
 10
-241.12219772827811
 20
183.38619537551091
 30
0.0
 11
-233.9397747184378
 21
163.65265033900721
 31
0.0
1001
REVIT
1002
{
1070
     3
1000
224526
1002
}
  0
LINE
  5
39A
  8
0
 10
-231.3763491902146
 20
162.45730538408691
 30
0.0
 11
-94.181226555475106
 21
212.39224630964321
 31
0.0
1001
REVIT
1002
{
1070
     3
1000
224526
1002
}
  0
LINE
  5
39B
  8
0
 10
-92.985881600554805
 20
214.95567183786639
 30
0.0
 11
-100.168304610395
 21
234.68921687437
 31
0.0
1001
REVIT
1002
{
1070
     3
1000
224526
1002
}
  0
LINE
  5
39C
  8
0
 10
-239.24281248670661
 20
184.07023566216239
 30
0.0
 11
-121.3891207483145
 21
208.72327977152639
 31
0.0
  0
LINE
  5
39D
  8
0
 10
-120.400233449379
 20
208.9301386474788
 30
0.0
 11
-94.865266842126545
 21
214.27163155121511
 31
0.0
  0
LINE
  5
39E
  8
0
 10
-102.04768985196689
 20
234.00517658771881
 30
0.0
 11
-125.0420545824299
 21
221.68343739568101
 31
0.0
  0
LINE
  5
39F
  8
0
 10
-125.9325525250662
 20
221.20625598498199
 30
0.0
 11
-232.06038947686599
 21
164.33669062565869
 31
0.0
  0
ARC
  5
3A0
  8
0
 10
88.768331735437926
 20
307.79343507911631
 30
0.0
 40
2.0000000000000022
 50
20.000000000003499
 51
110.00000000000389
1001
REVIT
1002
{
1070
     3
1000
224526
1002
}
  0
ARC
  5
3A1
  8
0
 10
-48.426790899301501
 20
257.85849415356012
 30
0.0
 40
1.999999999999998
 50
110.00000000000369
 51
200.0000000000035
1001
REVIT
1002
{
1070
     3
1000
224526
1002
}
  0
ARC
  5
3A2
  8
0
 10
-41.244367889461202
 20
238.12494911705639
 30
0.0
 40
2.0
 50
200.0000000000035
 51
290.00000000000313
1001
REVIT
1002
{
1070
     3
1000
224526
1002
}
  0
ARC
  5
3A3
  8
0
 10
95.950754745278275
 20
288.05989004261272
 30
0.0
 40
2.0
 50
290.00000000000352
 51
20.000000000003428
1001
REVIT
1002
{
1070
     3
1000
224526
1002
}
  0
LINE
  5
3A4
  8
0
 10
88.084291448786459
 20
309.67282032068812
 30
0.0
 11
77.01795663204993
 21
305.64500384497143
 31
0.0
1001
REVIT
1002
{
1070
     3
1000
224526
1002
}
  0
LINE
  5
3A5
  8
0
 10
76.078264011263911
 20
305.3029837016457
 30
0.0
 11
-49.110831185952961
 21
259.7378793951317
 31
0.0
1001
REVIT
1002
{
1070
     3
1000
224526
1002
}
  0
LINE
  5
3A6
  8
0
 10
-50.306176140873248
 20
257.17445386690861
 30
0.0
 11
-43.123753131032942
 21
237.44090883040499
 31
0.0
1001
REVIT
1002
{
1070
     3
1000
224526
1002
}
  0
LINE
  5
3A7
  8
0
 10
-40.560327602809771
 20
236.24556387548461
 30
0.0
 11
84.954952560881225
 21
281.9293898006602
 31
0.0
1001
REVIT
1002
{
1070
     3
1000
224526
1002
}
  0
LINE
  5
3A8
  8
0
 10
85.242275248717647
 20
282.03396670666211
 30
0.0
 11
96.634795031929727
 21
286.18050480104102
 31
0.0
1001
REVIT
1002
{
1070
     3
1000
224526
1002
}
  0
LINE
  5
3A9
  8
0
 10
97.830139986850014
 20
288.74393032926412
 30
0.0
 11
90.647716977009736
 21
308.4774753657677
 31
0.0
1001
REVIT
1002
{
1070
     3
1000
224526
1002
}
  0
LINE
  5
3AA
  8
0
 10
-48.426790899301722
 20
257.85849415356017
 30
0.0
 11
83.316189163920995
 21
285.41694778102232
 31
0.0
  0
LINE
  5
3AB
  8
0
 10
84.305076462856334
 20
285.62380665697469
 30
0.0
 11
95.950754745278275
 21
288.05989004261278
 31
0.0
  0
LINE
  5
3AC
  8
0
 10
88.768331735437926
 20
307.79343507911648
 30
0.0
 11
78.281340384386553
 21
302.17388551332118
 31
0.0
  0
LINE
  5
3AD
  8
0
 10
77.390842441750294
 20
301.69670410262222
 30
0.0
 11
-41.244367889461166
 21
238.12494911705639
 31
0.0
  0
INSERT
  5
3AE
  8
0
  6
CONTINUOUS
  2
*U49
 10
0.0
 20
0.0
 30
0.0
1001
ACAD
1002
{
1000
R14_HATCH_DATA
1000
3AE
1011
1.0
1021
0.0
1031
0.0000000002328306
1021
0.0
1031
0.0
1011
0.0
1021
0.0
1031
0.0000000002328306
1021
1.0
1031
0.0
1011
0.0
1021
0.0
1031
0.0000000002328306
1021
0.0
1031
1.0
1040
0.0
1010
0.0
1020
0.0
1030
1.0
1000
SOLID
1070
     1
1070
     0
1071
        1
1071
        0
1071
      129
1070
     1
1040
-505.82554403644019
1040
36.329763373488191
1040
-421.2499999999996
1040
36.329763373488191
1070
     1
1040
-421.2499999999996
1040
36.329763373488191
1040
-420.53824762596781
1040
36.423467351193104
1070
     1
1040
-420.53824762596781
1040
36.423467351193104
1040
-419.87499999999977
1040
36.698193513080859
1070
     1
1040
-419.87499999999977
1040
36.698193513080859
1040
-419.30545635173689
1040
37.135219725224971
1070
     1
1040
-419.30545635173689
1040
37.135219725224971
1040
-418.86843013959282
1040
37.704763373487879
1070
     1
1040
-418.86843013959282
1040
37.704763373487879
1040
-418.5937039777051
1040
38.368010999455819
1070
     1
1040
-418.5937039777051
1040
38.368010999455826
1040
-418.50000000000011
1040
39.079763373487708
1070
     1
1040
-418.50000000000011
1040
39.079763373487701
1040
-418.50000000000011
1040
110.57976337348791
1070
     1
1040
-418.50000000000011
1040
110.57976337348791
1040
-418.57666689084982
1040
111.1621062249688
1070
     1
1040
-418.57666689084971
1040
111.1621062249688
1040
-418.8014428414852
1040
111.7047633734884
1070
     1
1040
-418.8014428414852
1040
111.7047633734884
1040
-419.15900974233062
1040
112.17075363115831
1070
     1
1040
-419.15900974233062
1040
112.17075363115831
1040
-419.62500000000063
1040
112.5283205320036
1070
     1
1040
-419.62500000000063
1040
112.5283205320036
1040
-420.16765714852011
1040
112.75309648263919
1070
     1
1040
-420.16765714852011
1040
112.75309648263909
1040
-420.75000000000108
1040
112.8297633734888
1070
     1
1040
-420.75000000000108
1040
112.8297633734888
1040
-421.33234285148188
1040
112.75309648263919
1070
     1
1040
-421.33234285148188
1040
112.75309648263909
1040
-421.87500000000148
1040
112.5283205320036
1070
     1
1040
-421.87500000000148
1040
112.5283205320036
1040
-422.34099025767142
1040
112.17075363115831
1070
     1
1040
-422.34099025767142
1040
112.17075363115831
1040
-422.69855715851668
1040
111.7047633734884
1070
     1
1040
-422.69855715851668
1040
111.7047633734884
1040
-422.92333310915222
1040
111.1621062249688
1070
     1
1040
-422.92333310915222
1040
111.1621062249688
1040
-423.00000000000188
1040
110.57976337348791
1070
     1
1040
-423.00000000000188
1040
110.57976337348791
1040
-423.00000000000188
1040
105.57976337348791
1070
     1
1040
-423.00000000000188
1040
105.57976337348791
1040
-422.00000000000182
1040
105.57976337348791
1070
     1
1040
-422.00000000000188
1040
105.57976337348791
1040
-421.95740728286307
1040
110.9032871798663
1070
     1
1040
-421.95740728286307
1040
110.9032871798663
1040
-421.83253175473232
1040
111.2047633734885
1070
     1
1040
-421.83253175473232
1040
111.2047633734885
1040
-421.6338834764847
1040
111.4636468499717
1070
     1
1040
-421.6338834764847
1040
111.4636468499717
1040
-421.37500000000148
1040
111.6622951282193
1070
     1
1040
-421.37500000000148
1040
111.6622951282193
1040
-421.0735238063794
1040
111.7871706563501
1070
     1
1040
-421.0735238063794
1040
111.7871706563501
1040
-420.75000000000102
1040
111.8297633734889
1070
     1
1040
-420.75000000000108
1040
111.8297633734889
1040
-420.42647619362259
1040
111.7871706563502
1070
     1
1040
-420.42647619362259
1040
111.7871706563502
1040
-420.12500000000068
1040
111.6622951282193
1070
     1
1040
-420.12500000000068
1040
111.6622951282193
1040
-419.86611652351718
1040
111.46364684997189
1070
     1
1040
-419.86611652351712
1040
111.46364684997189
1040
-419.66746824526962
1040
111.2047633734885
1070
     1
1040
-419.66746824526967
1040
111.2047633734885
1040
-419.5425927171388
1040
110.9032871798663
1070
     1
1040
-419.5425927171388
1040
110.9032871798663
1040
-419.50000000000011
1040
110.57976337348791
1070
     1
1040
-419.50000000000011
1040
110.57976337348791
1040
-419.50000000000011
1040
39.079763373487708
1070
     1
1040
-419.50000000000011
1040
39.079763373487701
1040
-419.5596298039942
1040
38.626830044558453
1070
     1
1040
-419.5596298039942
1040
38.626830044558453
1040
-419.73445554337718
1040
38.2047633734879
1070
     1
1040
-419.73445554337718
1040
38.2047633734879
1040
-420.01256313292339
1040
37.842326506411567
1070
     1
1040
-420.01256313292339
1040
37.842326506411567
1040
-420.37499999999977
1040
37.564218916865343
1070
     1
1040
-420.37499999999977
1040
37.564218916865343
1040
-420.7970666710703
1040
37.389393177482312
1070
     1
1040
-420.7970666710703
1040
37.389393177482312
1040
-421.2499999999996
1040
37.329763373488099
1070
     1
1040
-421.2499999999996
1040
37.329763373488099
1040
-506.20148842848778
1040
37.370621537920407
1070
     1
1040
-506.20148842848778
1040
37.370621537920407
1040
-506.5598780802066
1040
37.491288157387537
1070
     1
1040
-506.5598780802066
1040
37.491288157387551
1040
-506.88397797065858
1040
37.686128698655921
1070
     1
1040
-506.88397797065858
1040
37.686128698655907
1040
-507.15865424085342
1040
37.946045073870337
1070
     1
1040
-507.15865424085342
1040
37.946045073870337
1040
-507.53165929623179
1040
38.561240700424648
1070
     1
1040
-507.53165929623179
1040
38.561240700424648
1040
-509.01219600538229
1040
41.348824382050552
1070
     1
1040
-509.01219600538241
1040
41.348824382050552
1040
-509.38939259777578
1040
42.289535772956278
1070
     1
1040
-509.38939259777578
1040
42.289535772956278
1040
-509.55842701320171
1040
43.288856820815411
1070
     1
1040
-509.55842701320171
1040
43.288856820815411
1040
-509.51160353003331
1040
44.301290893591137
1070
     1
1040
-509.51160353003331
1040
44.301290893591137
1040
-509.03670586989529
1040
47.378797378606251
1070
     1
1040
-509.03670586989529
1040
47.378797378606251
1040
-509.02364036180461
1040
47.965800503293273
1070
     1
1040
-509.02364036180461
1040
47.965800503293273
1040
-509.1628915513819
1040
48.536197279314379
1070
     1
1040
-509.1628915513819
1040
48.536197279314379
1040
-509.61125191895638
1040
49.278241157656311
1070
     1
1040
-509.61125191895638
1040
49.278241157656311
1040
-510.17297513037948
1040
50.045434089375043
1070
     1
1040
-510.17297513037943
1040
50.045434089375043
1040
-511.90093776720812
1040
52.079116958735277
1070
     1
1040
-511.90093776720812
1040
52.079116958735277
1040
-513.32427053601486
1040
53.449923505517383
1070
     1
1040
-513.32427053601486
1040
53.449923505517383
1040
-517.21732634137118
1040
56.790724439539311
1070
     1
1040
-517.21732634137118
1040
56.790724439539311
1040
-521.38544660620175
1040
61.178762137489791
1070
     1
1040
-521.38544660620175
1040
61.178762137489777
1040
-524.57927913876836
1040
66.319533979795864
1070
     1
1040
-524.57927913876836
1040
66.319533979795864
1040
-526.76158993427521
1040
72.371743305422044
1070
     1
1040
-526.76158993427532
1040
72.371743305422058
1040
-532.11421778546594
1040
93.313471362838257
1070
     1
1040
-532.11421778546594
1040
93.313471362838243
1040
-533.45388163464099
1040
97.289297746761548
1070
     1
1040
-533.45388163464099
1040
97.289297746761562
1040
-534.91718226849855
1040
100.4017868983146
1070
     1
1040
-534.91718226849855
1040
100.4017868983146
1040
-536.96755145751058
1040
103.6232647105608
1070
     1
1040
-536.96755145751058
1040
103.6232647105608
1040
-539.40304121386714
1040
106.5644078136292
1070
     1
1040
-539.40304121386714
1040
106.5644078136292
1040
-542.170246965209
1040
109.1518496263138
1070
     1
1040
-542.17024696520912
1040
109.15184962631371
1040
-545.2869702356561
1040
111.41004567568309
1070
     1
1040
-545.2869702356561
1040
111.41004567568309
1040
-551.04848381425131
1040
115.1015965396536
1070
     1
1040
-551.04848381425131
1040
115.1015965396536
1040
-551.30048257956355
1040
115.43252197999681
1070
     1
1040
-551.30048257956355
1040
115.43252197999681
1040
-551.46726409011353
1040
115.8135717832035
1070
     1
1040
-551.46726409011353
1040
115.8135717832035
1040
-551.5394060741686
1040
116.2232186542054
1070
     1
1040
-551.5394060741686
1040
116.2232186542054
1040
-551.44001215722733
1040
117.0316774816166
1070
     1
1040
-551.44001215722722
1040
117.0316774816166
1040
-549.42687257387524
1040
127.79639555532501
1070
     1
1040
-549.42687257387524
1040
127.79639555532501
1040
-549.21997576354283
1040
128.07103536810101
1070
     1
1040
-549.21997576354283
1040
128.07103536810101
1040
-548.91226247665213
1040
128.22448193847089
1070
     1
1040
-548.91226247665202
1040
128.22448193847089
1040
-548.74033711720244
1040
128.2444533974018
1070
     1
1040
-548.74033711720244
1040
128.2444533974018
1040
-535.71719249341299
1040
128.21889776711859
1070
     1
1040
-535.71719249341299
1040
128.21889776711859
1040
-535.38097669134982
1040
128.0247834832918
1070
     1
1040
-535.38097669134982
1040
128.0247834832918
1040
-535.18686240752299
1040
127.6885676812287
1070
     1
1040
-535.18686240752299
1040
127.6885676812287
1040
-535.16130677723993
1040
127.4944533974018
1070
     1
1040
-535.1613067772397
1040
127.4944533974018
1040
-535.1613067772397
1040
124.8337292962775
1070
     1
1040
-535.1613067772397
1040
124.8337292962775
1040
-534.16130677723982
1040
124.8337292962775
1070
     1
1040
-534.16130677723982
1040
124.8337292962775
1040
-534.16130677723982
1040
127.4944533974018
1070
     1
1040
-534.16130677723982
1040
127.4944533974018
1040
-534.2209365812339
1040
127.9473867263312
1070
     1
1040
-534.2209365812339
1040
127.9473867263312
1040
-534.39576232061711
1040
128.3694533974018
1070
     1
1040
-534.39576232061711
1040
128.3694533974018
1040
-534.67386991016326
1040
128.73189026447821
1070
     1
1040
-534.67386991016326
1040
128.73189026447821
1040
-535.03630677723993
1040
129.00999785402459
1070
     1
1040
-535.03630677723982
1040
129.00999785402459
1040
-535.45837344831045
1040
129.18482359340771
1070
     1
1040
-535.45837344831045
1040
129.18482359340771
1040
-535.91130677723982
1040
129.2444533974018
1070
     1
1040
-535.91130677723982
1040
129.2444533974018
1040
-549.14149628925099
1040
129.19785332656559
1070
     1
1040
-549.14149628925077
1040
129.19785332656559
1040
-549.52129083748991
1040
129.0605349044645
1070
     1
1040
-549.52129083748991
1040
129.0605349044645
1040
-549.8594939586618
1040
128.839811329036
1070
     1
1040
-549.8594939586618
1040
128.839811329036
1040
-550.13809389344885
1040
128.54743772513669
1070
     1
1040
-550.13809389344885
1040
128.54743772513669
1040
-550.34225318277049
1040
128.19898509922601
1070
     1
1040
-550.34225318277049
1040
128.19898509922601
1040
-550.49892390537661
1040
127.6086905342609
1070
     1
1040
-550.49892390537661
1040
127.6086905342609
1040
-552.49612532181641
1040
116.8203526713356
1070
     1
1040
-552.49612532181641
1040
116.8203526713356
1040
-552.53788317976114
1040
116.1680510041963
1070
     1
1040
-552.53788317976114
1040
116.1680510041963
1040
-552.42451720481745
1040
115.5243202069076
1070
     1
1040
-552.42451720481745
1040
115.5243202069076
1040
-552.16243197395318
1040
114.92552765901161
1070
     1
1040
-552.16243197395318
1040
114.92552765901161
1040
-551.76643391417713
1040
114.405501967044
1070
     1
1040
-551.76643391417701
1040
114.405501967044
1040
-551.25889481785691
1040
113.99362182748951
1070
     1
1040
-551.25889481785703
1040
113.99362182748951
1040
-545.82036066419278
1040
110.5641765068718
1070
     1
1040
-545.82036066419266
1040
110.5641765068718
1040
-542.8066695679754
1040
108.3806315665726
1070
     1
1040
-542.80666956797563
1040
108.3806315665726
1040
-540.13094169271108
1040
105.8787250204232
1070
     1
1040
-540.13094169271096
1040
105.8787250204232
1040
-537.77596399441575
1040
103.0348097885305
1070
     1
1040
-537.77596399441575
1040
103.0348097885305
1040
-535.79337560504052
1040
99.919827110573607
1070
     1
1040
-535.79337560504052
1040
99.919827110573578
1040
-534.23481565653583
1040
96.604718226230517
1070
     1
1040
-534.23481565653583
1040
96.604718226230531
1040
-533.08307110491808
1040
93.065836055608855
1070
     1
1040
-533.08307110491808
1040
93.065836055608855
1040
-527.63550125762413
1040
71.752655037347949
1070
     1
1040
-527.63550125762413
1040
71.752655037347949
1040
-525.47796880109786
1040
65.880948878792182
1070
     1
1040
-525.47796880109786
1040
65.880948878792182
1040
-522.17678055315093
1040
60.567377982963251
1070
     1
1040
-522.17678055315093
1040
60.567377982963251
1040
-517.86855540546878
1040
56.03184321953524
1070
     1
1040
-517.86855540546867
1040
56.03184321953524
1040
-513.97549960011224
1040
52.691042285513319
1070
     1
1040
-513.97549960011224
1040
52.691042285513312
1040
-512.35064184144494
1040
51.117638086027313
1070
     1
1040
-512.35064184144494
1040
51.117638086027313
1040
-510.85064182682748
1040
49.278241157656311
1070
     1
1040
-510.85064182682748
1040
49.278241157656311
1040
-510.09511135739717
1040
48.174304707861673
1070
     1
1040
-510.09511135739717
1040
48.174304707861673
1040
-510.01774958540977
1040
47.857417610072119
1070
     1
1040
-510.01774958540977
1040
47.857417610072119
1040
-510.02500820101591
1040
47.531304763023982
1070
     1
1040
-510.02500820101591
1040
47.531304763023982
1040
-510.49990586115382
1040
44.45379827800874
1070
     1
1040
-510.49990586115382
1040
44.45379827800874
1040
-510.55658691972621
1040
43.228220189911823
1070
     1
1040
-510.55658691972621
1040
43.228220189911823
1040
-510.35196631157891
1040
42.018515763555847
1070
     1
1040
-510.35196631157891
1040
42.01851576355584
1040
-509.89535991026059
1040
40.879759869301637
1070
     1
1040
-509.89535991026059
1040
40.879759869301651
1040
-508.25424477485421
1040
37.789835963427912
1070
     1
1040
-508.2542447748541
1040
37.789835963427912
1040
-507.92043150051859
1040
37.29820604551756
1070
     1
1040
-507.92043150051859
1040
37.29820604551756
1040
-507.48879736164071
1040
36.889766027323432
1070
     1
1040
-507.48879736164082
1040
36.889766027323439
1040
-506.97949753378759
1040
36.583588033901677
1070
     1
1040
-506.97949753378759
1040
36.583588033901677
1040
-506.41631379537222
1040
36.393969060453038
1070
     1
1040
-506.41631379537222
1040
36.393969060453038
1040
-505.82554403644019
1040
36.329763373488191
1071
        0
1070
     0
1070
     1
1071
        1
1040
-418.4999999999996
1040
36.329763373488063
1040
0.0
1002
}
  0
LINE
  5
3AF
  8
0
 10
-535.16130677723913
 20
124.8337292962773
 30
0.0
 11
-534.16130677723913
 21
124.8337292962773
 31
0.0
1001
REVIT
1002
{
1070
     3
1000
476644
1002
}
  0
LINE
  5
3B0
  8
0
 10
-534.16130677723913
 20
124.8337292962773
 30
0.0
 11
-534.16130677723913
 21
127.4944533974016
 31
0.0
1001
REVIT
1002
{
1070
     3
1000
476644
1002
}
  0
ARC
  5
3B1
  8
0
 10
-535.91130677723913
 20
127.4944533974016
 30
0.0
 40
1.75
 50
0.0
 51
90.0
1001
REVIT
1002
{
1070
     3
1000
476644
1002
}
  0
LINE
  5
3B2
  8
0
 10
-535.91130677723913
 20
129.2444533974016
 30
0.0
 11
-548.74033711720176
 21
129.2444533974016
 31
0.0
1001
REVIT
1002
{
1070
     3
1000
476644
1002
}
  0
ARC
  5
3B3
  8
0
 10
-548.74033711720176
 20
127.4944533973984
 30
0.0
 40
1.7500000000014491
 50
90.0
 51
169.5118037983687
1001
REVIT
1002
{
1070
     3
1000
476644
1002
}
  0
LINE
  5
3B4
  8
0
 10
-550.46109886966178
 20
127.8130110707893
 30
0.0
 11
-552.49612532181573
 21
116.8203526713354
 31
0.0
1001
REVIT
1002
{
1070
     3
1000
476644
1002
}
  0
ARC
  5
3B5
  8
0
 10
-549.79207113937957
 20
116.3197620417214
 30
0.0
 40
2.7500000000013221
 50
169.5118037983687
 51
237.76518004707859
1001
REVIT
1002
{
1070
     3
1000
476644
1002
}
  0
LINE
  5
3B6
  8
0
 10
-551.25889481785634
 20
113.99362182748931
 30
0.0
 11
-545.82036066419221
 21
110.5641765068717
 31
0.0
1001
REVIT
1002
{
1070
     3
1000
476644
1002
}
  0
ARC
  5
3B7
  8
0
 10
-561.42203069889138
 20
85.822503319141759
 30
0.0
 40
29.250000000001211
 50
14.33762585345529
 51
57.765180047081607
1001
REVIT
1002
{
1070
     3
1000
476644
1002
}
  0
LINE
  5
3B8
  8
0
 10
-533.08307110491728
 20
93.065836055608713
 30
0.0
 11
-527.63550125762345
 21
71.752655037347807
 31
0.0
1001
REVIT
1002
{
1070
     3
1000
476644
1002
}
  0
ARC
  5
3B9
  8
0
 10
-497.84326168447262
 20
79.367440734658871
 30
0.0
 40
30.749999999999812
 50
194.33762585345491
 51
229.3656677408556
1001
REVIT
1002
{
1070
     3
1000
476644
1002
}
  0
LINE
  5
3BA
  8
0
 10
-517.8685554054681
 20
56.03184321953524
 30
0.0
 11
-513.97549960011168
 21
52.691042285513198
 31
0.0
1001
REVIT
1002
{
1070
     3
1000
476644
1002
}
  0
ARC
  5
3BB
  8
0
 10
-526.51165908398605
 20
38.082578800436828
 30
0.0
 40
19.249999999998529
 50
36.210836948253387
 51
49.365667740855841
1001
REVIT
1002
{
1070
     3
1000
476644
1002
}
  0
LINE
  5
3BC
  8
0
 10
-510.9798237206806
 20
49.454675803501573
 30
0.0
 11
-510.25182537703847
 21
48.460386850887019
 31
0.0
1001
REVIT
1002
{
1070
     3
1000
476644
1002
}
  0
ARC
  5
3BD
  8
0
 10
-511.26038611491458
 20
47.721938993545699
 30
0.0
 40
1.2499999999989371
 50
351.22773877677042
 51
36.210836948254382
1001
REVIT
1002
{
1070
     3
1000
476644
1002
}
  0
LINE
  5
3BE
  8
0
 10
-510.02500820101523
 20
47.531304763023783
 30
0.0
 11
-510.49990586115308
 21
44.45379827800862
 31
0.0
1001
REVIT
1002
{
1070
     3
1000
476644
1002
}
  0
ARC
  5
3BF
  8
0
 10
-504.81716745721218
 20
43.576880817607439
 30
0.0
 40
5.7499999999984253
 50
171.22773877677199
 51
207.97358915472441
1001
REVIT
1002
{
1070
     3
1000
476644
1002
}
  0
LINE
  5
3C0
  8
0
 10
-509.89535991025991
 20
40.879759869301509
 30
0.0
 11
-508.25424477485359
 21
37.789835963427741
 31
0.0
1001
REVIT
1002
{
1070
     3
1000
476644
1002
}
  0
ARC
  5
3C1
  8
0
 10
-505.82554403643979
 20
39.079763373486891
 30
0.0
 40
2.74999999999884
 50
207.97358915472401
 51
270.0
1001
REVIT
1002
{
1070
     3
1000
476644
1002
}
  0
LINE
  5
3C2
  8
0
 10
-505.82554403643968
 20
36.329763373488063
 30
0.0
 11
-421.2499999999992
 21
36.329763373488063
 31
0.0
1001
REVIT
1002
{
1070
     3
1000
476644
1002
}
  0
ARC
  5
3C3
  8
0
 10
-421.24999999999909
 20
39.07976337348758
 30
0.0
 40
2.7499999999995191
 50
270.0
 51
0.0
1001
REVIT
1002
{
1070
     3
1000
476644
1002
}
  0
LINE
  5
3C4
  8
0
 10
-418.4999999999996
 20
39.07976337348758
 30
0.0
 11
-418.4999999999996
 21
110.57976337348779
 31
0.0
1001
REVIT
1002
{
1070
     3
1000
476644
1002
}
  0
ARC
  5
3C5
  8
0
 10
-420.7500000000004
 20
110.57976337348779
 30
0.0
 40
2.2500000000009148
 50
0.0000000000004071
 51
179.9999999999996
1001
REVIT
1002
{
1070
     3
1000
476644
1002
}
  0
LINE
  5
3C6
  8
0
 10
-423.00000000000142
 20
110.57976337348779
 30
0.0
 11
-423.00000000000142
 21
105.57976337348779
 31
0.0
1001
REVIT
1002
{
1070
     3
1000
476644
1002
}
  0
LINE
  5
3C7
  8
0
 10
-423.00000000000142
 20
105.57976337348779
 30
0.0
 11
-422.00000000000131
 21
105.57976337348779
 31
0.0
1001
REVIT
1002
{
1070
     3
1000
476644
1002
}
  0
LINE
  5
3C8
  8
0
 10
-422.00000000000131
 20
105.57976337348779
 30
0.0
 11
-422.00000000000131
 21
110.57976337348779
 31
0.0
1001
REVIT
1002
{
1070
     3
1000
476644
1002
}
  0
ARC
  5
3C9
  8
0
 10
-420.7500000000004
 20
110.57976337348779
 30
0.0
 40
1.2500000000009139
 50
0.0000000000012213
 51
180.0
1001
REVIT
1002
{
1070
     3
1000
476644
1002
}
  0
LINE
  5
3CA
  8
0
 10
-419.49999999999949
 20
110.57976337348779
 30
0.0
 11
-419.49999999999949
 21
39.07976337348758
 31
0.0
1001
REVIT
1002
{
1070
     3
1000
476644
1002
}
  0
ARC
  5
3CB
  8
0
 10
-421.24999999999909
 20
39.079763373487623
 30
0.0
 40
1.749999999999555
 50
270.0
 51
359.9999999999992
1001
REVIT
1002
{
1070
     3
1000
476644
1002
}
  0
LINE
  5
3CC
  8
0
 10
-421.2499999999992
 20
37.329763373488049
 30
0.0
 11
-505.82554403644019
 21
37.329763373488049
 31
0.0
1001
REVIT
1002
{
1070
     3
1000
476644
1002
}
  0
ARC
  5
3CD
  8
0
 10
-505.82554403643979
 20
39.07976337348687
 30
0.0
 40
1.7499999999988161
 50
207.97358915472401
 51
270.0
1001
REVIT
1002
{
1070
     3
1000
476644
1002
}
  0
LINE
  5
3CE
  8
0
 10
-507.3710808699754
 20
38.258900476176741
 30
0.0
 11
-509.01219600538178
 21
41.348824382050459
 31
0.0
1001
REVIT
1002
{
1070
     3
1000
476644
1002
}
  0
ARC
  5
3CF
  8
0
 10
-504.81716745721189
 20
43.576880817607467
 30
0.0
 40
4.7499999999986988
 50
171.22773877677321
 51
207.97358915472401
1001
REVIT
1002
{
1070
     3
1000
476644
1002
}
  0
LINE
  5
3D0
  8
0
 10
-509.51160353003269
 20
44.301290893590981
 30
0.0
 11
-509.03670586989477
 21
47.378797378606151
 31
0.0
1001
REVIT
1002
{
1070
     3
1000
476644
1002
}
  0
ARC
  5
3D1
  8
0
 10
-511.26038611491458
 20
47.721938993545699
 30
0.0
 40
2.249999999998916
 50
351.22773877677042
 51
36.210836948253721
1001
REVIT
1002
{
1070
     3
1000
476644
1002
}
  0
LINE
  5
3D2
  8
0
 10
-509.44497678673679
 20
49.051145136760567
 30
0.0
 11
-510.17297513037892
 21
50.045434089375092
 31
0.0
1001
REVIT
1002
{
1070
     3
1000
476644
1002
}
  0
ARC
  5
3D3
  8
0
 10
-526.5116590839865
 20
38.082578800436423
 30
0.0
 40
20.24999999999908
 50
36.210836948253061
 51
49.365667740855571
1001
REVIT
1002
{
1070
     3
1000
476644
1002
}
  0
LINE
  5
3D4
  8
0
 10
-513.32427053601441
 20
53.449923505517212
 30
0.0
 11
-517.21732634137072
 21
56.790724439539282
 31
0.0
1001
REVIT
1002
{
1070
     3
1000
476644
1002
}
  0
ARC
  5
3D5
  8
0
 10
-497.84326168447262
 20
79.367440734658913
 30
0.0
 40
29.749999999999851
 50
194.33762585345531
 51
229.3656677408558
1001
REVIT
1002
{
1070
     3
1000
476644
1002
}
  0
LINE
  5
3D6
  8
0
 10
-526.6666479381712
 20
72.000290344577422
 30
0.0
 11
-532.11421778546526
 21
93.313471362838357
 31
0.0
1001
REVIT
1002
{
1070
     3
1000
476644
1002
}
  0
ARC
  5
3D7
  8
0
 10
-561.42203069889138
 20
85.822503319141759
 30
0.0
 40
30.250000000001151
 50
14.33762585345489
 51
57.76518004707863
1001
REVIT
1002
{
1070
     3
1000
476644
1002
}
  0
LINE
  5
3D8
  8
0
 10
-545.28697023565553
 20
111.41004567568299
 30
0.0
 11
-550.72550438931955
 21
114.8394909963005
 31
0.0
1001
REVIT
1002
{
1070
     3
1000
476644
1002
}
  0
ARC
  5
3D9
  8
0
 10
-549.79207113937957
 20
116.3197620417214
 30
0.0
 40
1.750000000001342
 50
169.5118037983695
 51
237.7651800470818
1001
REVIT
1002
{
1070
     3
1000
476644
1002
}
  0
LINE
  5
3DA
  8
0
 10
-551.51283289183937
 20
116.6383197151122
 30
0.0
 11
-549.47780643968542
 21
127.63097811456601
 31
0.0
1001
REVIT
1002
{
1070
     3
1000
476644
1002
}
  0
ARC
  5
3DB
  8
0
 10
-548.74033711720176
 20
127.4944533973983
 30
0.0
 40
0.7500000000014656
 50
90.000000000003254
 51
169.51180379836589
1001
REVIT
1002
{
1070
     3
1000
476644
1002
}
  0
LINE
  5
3DC
  8
0
 10
-548.74033711720176
 20
128.2444533974016
 30
0.0
 11
-535.91130677723913
 21
128.2444533974016
 31
0.0
1001
REVIT
1002
{
1070
     3
1000
476644
1002
}
  0
ARC
  5
3DD
  8
0
 10
-535.91130677723925
 20
127.4944533974016
 30
0.0
 40
0.750000000000064
 50
0.0000000000028498
 51
89.999999999996746
1001
REVIT
1002
{
1070
     3
1000
476644
1002
}
  0
LINE
  5
3DE
  8
0
 10
-535.16130677723913
 20
127.4944533974016
 30
0.0
 11
-535.16130677723913
 21
124.8337292962773
 31
0.0
1001
REVIT
1002
{
1070
     3
1000
476644
1002
}
  0
ARC
  5
3DF
  8
0
 10
48.999999999999858
 20
-12.000000000000011
 30
0.0
 40
1.9999999999999969
 50
0.0
 51
90.000000000000185
1001
REVIT
1002
{
1070
     3
1000
224526
1002
}
  0
ARC
  5
3E0
  8
0
 10
2.999999999999921
 20
-11.99999999999994
 30
0.0
 40
2.0
 50
89.999999999999801
 51
179.9999999999996
1001
REVIT
1002
{
1070
     3
1000
224526
1002
}
  0
ARC
  5
3E1
  8
0
 10
2.9999999999999321
 20
-82.999999999999972
 30
0.0
 40
1.999999999999994
 50
180.0
 51
269.99999999999977
1001
REVIT
1002
{
1070
     3
1000
224526
1002
}
  0
ARC
  5
3E2
  8
0
 10
48.999999999999929
 20
-82.999999999999986
 30
0.0
 40
1.9999999999999949
 50
269.9999999999996
 51
0.0
1001
REVIT
1002
{
1070
     3
1000
224526
1002
}
  0
LINE
  5
3E3
  8
0
 10
48.999999999999858
 20
-9.9999999999999432
 30
0.0
 11
2.9999999999999321
 21
-9.9999999999999432
 31
0.0
1001
REVIT
1002
{
1070
     3
1000
224526
1002
}
  0
LINE
  5
3E4
  8
0
 10
0.9999999999999218
 20
-11.999999999999931
 30
0.0
 11
0.9999999999999218
 21
-82.999999999999972
 31
0.0
1001
REVIT
1002
{
1070
     3
1000
224526
1002
}
  0
LINE
  5
3E5
  8
0
 10
2.9999999999999178
 20
-84.999999999999986
 30
0.0
 11
48.999999999999943
 21
-84.999999999999986
 31
0.0
1001
REVIT
1002
{
1070
     3
1000
224526
1002
}
  0
LINE
  5
3E6
  8
0
 10
50.999999999999929
 20
-82.999999999999986
 30
0.0
 11
50.999999999999929
 21
-12.00000000000002
 31
0.0
1001
REVIT
1002
{
1070
     3
1000
224526
1002
}
  0
LINE
  5
3E7
  8
0
 10
2.9999999999997611
 20
-11.99999999999976
 30
0.0
 11
48.999999999999957
 21
-82.999999999999915
 31
0.0
  0
LINE
  5
3E8
  8
0
 10
48.99999999999995
 20
-11.99999999999976
 30
0.0
 11
2.999999999999964
 21
-82.999999999999986
 31
0.0
  0
ARC
  5
3E9
  8
0
 10
-2.9999999999999281
 20
62.999999999999901
 30
0.0
 40
1.9999999999999969
 50
0.0000000000002036
 51
90.000000000000185
1001
REVIT
1002
{
1070
     3
1000
224526
1002
}
  0
ARC
  5
3EA
  8
0
 10
-48.999999999999872
 20
62.999999999999972
 30
0.0
 40
2.0
 50
89.999999999999801
 51
179.9999999999998
1001
REVIT
1002
{
1070
     3
1000
224526
1002
}
  0
ARC
  5
3EB
  8
0
 10
-48.999999999999858
 20
-8.0000000000000711
 30
0.0
 40
1.999999999999994
 50
180.0000000000002
 51
269.99999999999977
1001
REVIT
1002
{
1070
     3
1000
224526
1002
}
  0
ARC
  5
3EC
  8
0
 10
-2.9999999999998539
 20
-8.0000000000000782
 30
0.0
 40
1.9999999999999949
 50
269.9999999999996
 51
0.0
1001
REVIT
1002
{
1070
     3
1000
224526
1002
}
  0
LINE
  5
3ED
  8
0
 10
-2.9999999999999249
 20
64.999999999999972
 30
0.0
 11
-48.999999999999858
 21
64.999999999999972
 31
0.0
1001
REVIT
1002
{
1070
     3
1000
224526
1002
}
  0
LINE
  5
3EE
  8
0
 10
-50.999999999999872
 20
62.999999999999972
 30
0.0
 11
-50.999999999999872
 21
-8.0000000000000622
 31
0.0
1001
REVIT
1002
{
1070
     3
1000
224526
1002
}
  0
LINE
  5
3EF
  8
0
 10
-48.999999999999872
 20
-10.000000000000069
 30
0.0
 11
-2.9999999999998499
 21
-10.000000000000069
 31
0.0
1001
REVIT
1002
{
1070
     3
1000
224526
1002
}
  0
LINE
  5
3F0
  8
0
 10
-0.9999999999998543
 20
-8.0000000000000782
 30
0.0
 11
-0.9999999999998543
 21
62.999999999999893
 31
0.0
1001
REVIT
1002
{
1070
     3
1000
224526
1002
}
  0
LINE
  5
3F1
  8
0
 10
-49.000000000000028
 20
63.000000000000142
 30
0.0
 11
-2.9999999999998219
 21
-8.0000000000000071
 31
0.0
  0
LINE
  5
3F2
  8
0
 10
-2.999999999999829
 20
63.000000000000142
 30
0.0
 11
-48.999999999999822
 21
-8.0000000000000782
 31
0.0
  0
LINE
  5
3F3
  8
0
  6
DASH
 10
-2.0
 20
-9.9999999999999893
 30
0.0
 11
-2.0000000000000009
 21
-10.99999999999967
 31
0.0
1001
REVIT
1002
{
1070
     3
1000
217411
1002
}
  0
LINE
  5
3F4
  8
0
  6
DASH
 10
-2.0000000000000129
 20
-16.99999999999979
 30
0.0
 11
-2.0000000000004481
 21
-238.78154087428649
 31
0.0
1001
REVIT
1002
{
1070
     3
1000
217411
1002
}
  0
ARC
  5
3F5
  8
0
 10
98.000000000000384
 20
172.61516235161761
 30
0.0
 40
1.9999999999999969
 50
0.0
 51
90.0
1001
REVIT
1002
{
1070
     3
1000
224526
1002
}
  0
ARC
  5
3F6
  8
0
 10
2.000000000000433
 20
172.6151623516177
 30
0.0
 40
1.999999999999996
 50
90.0
 51
180.0
1001
REVIT
1002
{
1070
     3
1000
224526
1002
}
  0
ARC
  5
3F7
  8
0
 10
2.0000000000004401
 20
126.6151623516176
 30
0.0
 40
1.999999999999992
 50
180.0
 51
269.9999999999996
1001
REVIT
1002
{
1070
     3
1000
224526
1002
}
  0
ARC
  5
3F8
  8
0
 10
98.000000000000426
 20
126.6151623516176
 30
0.0
 40
2.0000000000000071
 50
269.9999999999996
 51
0.0
1001
REVIT
1002
{
1070
     3
1000
224526
1002
}
  0
LINE
  5
3F9
  8
0
 10
98.000000000000384
 20
174.6151623516177
 30
0.0
 11
2.000000000000433
 21
174.6151623516177
 31
0.0
1001
REVIT
1002
{
1070
     3
1000
224526
1002
}
  0
LINE
  5
3FA
  8
0
 10
0.0000000000004334
 20
172.6151623516177
 30
0.0
 11
0.0000000000004334
 21
126.6151623516176
 31
0.0
1001
REVIT
1002
{
1070
     3
1000
224526
1002
}
  0
LINE
  5
3FB
  8
0
 10
2.000000000000433
 20
124.6151623516176
 30
0.0
 11
98.000000000000426
 21
124.6151623516176
 31
0.0
1001
REVIT
1002
{
1070
     3
1000
224526
1002
}
  0
LINE
  5
3FC
  8
0
 10
100.0000000000004
 20
126.6151623516176
 30
0.0
 11
100.0000000000004
 21
172.61516235161761
 31
0.0
1001
REVIT
1002
{
1070
     3
1000
224526
1002
}
  0
LINE
  5
3FD
  8
0
 10
2.00000000000027
 20
172.61516235161781
 30
0.0
 11
98.000000000000455
 21
126.6151623516177
 31
0.0
  0
LINE
  5
3FE
  8
0
 10
98.000000000000455
 20
172.61516235161781
 30
0.0
 11
2.0000000000004761
 21
126.6151623516176
 31
0.0
  0
INSERT
  5
3FF
  8
0
  6
CONTINUOUS
  2
*X50
 10
0.0
 20
0.0
 30
0.0
1001
ACAD
1000
HATCH
1002
{
1070
    19
1000
FP_2
1040
1.0
1040
3.1415926535897931
1000
R14_HATCH_DATA
1000
3FF
1011
1.0
1021
0.0
1031
0.0000000002328306
1021
0.0
1031
0.0
1011
0.0
1021
0.0
1031
0.0000000002328306
1021
1.0
1031
0.0
1011
0.0
1021
0.0
1031
0.0000000002328306
1021
0.0
1031
1.0
1040
0.0
1010
0.0
1020
0.0
1030
1.0
1000
FP_2
1070
     0
1070
     0
1071
        1
1071
        0
1071
       24
1070
     1
1040
-400.5000000000004
1040
-31.999999999999972
1040
-400.5000000000004
1040
-17.500000000000409
1070
     1
1040
-400.5000000000004
1040
-17.500000000000409
1040
-408.00000000000028
1040
-17.500000000000409
1070
     1
1040
-408.00000000000028
1040
-17.500000000000409
1040
-408.00000000000028
1040
-12.500000000000339
1070
     1
1040
-408.00000000000028
1040
-12.500000000000339
1040
-400.5000000000004
1040
-9.5000000000003411
1070
     1
1040
-400.5000000000004
1040
-9.5000000000003411
1040
-400.5000000000004
1040
100.4999999999998
1070
     1
1040
-400.5000000000004
1040
100.4999999999998
1040
-408.00000000000028
1040
103.4999999999999
1070
     1
1040
-408.00000000000028
1040
103.4999999999999
1040
-408.00000000000028
1040
108.4999999999996
1070
     1
1040
-408.00000000000028
1040
108.4999999999996
1040
-400.5000000000004
1040
108.4999999999996
1070
     1
1040
-400.5000000000004
1040
108.4999999999996
1040
-400.5000000000004
1040
122.9999999999991
1070
     1
1040
-400.5000000000004
1040
122.9999999999991
1040
-416.5000000000004
1040
122.9999999999991
1070
     1
1040
-416.5000000000004
1040
122.9999999999991
1040
-417.01763809020559
1040
122.93185165257729
1070
     1
1040
-417.01763809020559
1040
122.93185165257729
1040
-417.5000000000004
1040
122.7320508075681
1070
     1
1040
-417.5000000000004
1040
122.7320508075681
1040
-417.9142135623735
1040
122.4142135623723
1070
     1
1040
-417.9142135623735
1040
122.4142135623723
1040
-418.23205080756929
1040
121.9999999999992
1070
     1
1040
-418.23205080756929
1040
121.9999999999992
1040
-418.43185165257847
1040
121.5176380902043
1070
     1
1040
-418.43185165257847
1040
121.5176380902043
1040
-418.5000000000004
1040
120.9999999999992
1070
     1
1040
-418.5000000000004
1040
120.9999999999992
1040
-418.5000000000004
1040
-29.999999999999861
1070
     1
1040
-418.5000000000004
1040
-29.999999999999869
1040
-418.43185165257847
1040
-30.517638090205001
1070
     1
1040
-418.43185165257847
1040
-30.517638090205001
1040
-418.23205080756918
1040
-30.999999999999918
1070
     1
1040
-418.23205080756918
1040
-30.999999999999918
1040
-417.91421356237339
1040
-31.414213562373071
1070
     1
1040
-417.91421356237339
1040
-31.414213562373071
1040
-417.5000000000004
1040
-31.732050807568839
1070
     1
1040
-417.5000000000004
1040
-31.732050807568839
1040
-417.01763809020542
1040
-31.93185165257805
1070
     1
1040
-417.01763809020542
1040
-31.93185165257805
1040
-416.5000000000004
1040
-31.999999999999972
1070
     1
1040
-416.5000000000004
1040
-31.999999999999972
1040
-400.5000000000004
1040
-31.999999999999972
1071
        0
1070
     0
1070
     2
1040
3.1415926535897931
1040
1.0
1070
     0
1070
     1
1040
0.785398163397448
1040
0.0000000000001137
1040
-0.0000000000000355
1040
-3.5355339059327369
1040
3.5355339059327369
1070
     0
1071
        1
1040
-409.49999999999977
1040
58.000000000000007
1040
0.0
1002
}
  0
LINE
  5
400
  8
0
 10
-416.49999999999989
 20
-31.99999999999994
 30
0.0
 11
-400.49999999999989
 21
-31.99999999999994
 31
0.0
1001
REVIT
1002
{
1070
     3
1000
224252
1002
}
  0
LINE
  5
401
  8
0
 10
-400.49999999999989
 20
-31.99999999999994
 30
0.0
 11
-400.49999999999989
 21
-17.500000000000401
 31
0.0
1001
REVIT
1002
{
1070
     3
1000
224252
1002
}
  0
LINE
  5
402
  8
0
 10
-400.49999999999989
 20
-17.500000000000401
 30
0.0
 11
-407.99999999999989
 21
-17.500000000000401
 31
0.0
1001
REVIT
1002
{
1070
     3
1000
224252
1002
}
  0
LINE
  5
403
  8
0
 10
-407.99999999999989
 20
-17.500000000000401
 30
0.0
 11
-407.99999999999989
 21
-12.5000000000004
 31
0.0
1001
REVIT
1002
{
1070
     3
1000
224252
1002
}
  0
LINE
  5
404
  8
0
 10
-407.99999999999989
 20
-12.5000000000004
 30
0.0
 11
-400.49999999999989
 21
-9.5000000000004672
 31
0.0
1001
REVIT
1002
{
1070
     3
1000
224252
1002
}
  0
LINE
  5
405
  8
0
 10
-400.49999999999989
 20
-9.5000000000003695
 30
0.0
 11
-400.49999999999989
 21
100.4999999999997
 31
0.0
1001
REVIT
1002
{
1070
     3
1000
224252
1002
}
  0
LINE
  5
406
  8
0
 10
-400.49999999999989
 20
100.4999999999997
 30
0.0
 11
-407.99999999999989
 21
103.4999999999997
 31
0.0
1001
REVIT
1002
{
1070
     3
1000
224252
1002
}
  0
LINE
  5
407
  8
0
 10
-407.99999999999989
 20
103.4999999999997
 30
0.0
 11
-407.99999999999989
 21
108.4999999999995
 31
0.0
1001
REVIT
1002
{
1070
     3
1000
224252
1002
}
  0
LINE
  5
408
  8
0
 10
-407.99999999999989
 20
108.4999999999995
 30
0.0
 11
-400.49999999999989
 21
108.4999999999995
 31
0.0
1001
REVIT
1002
{
1070
     3
1000
224252
1002
}
  0
LINE
  5
409
  8
0
 10
-400.49999999999989
 20
108.4999999999995
 30
0.0
 11
-400.49999999999989
 21
122.99999999999891
 31
0.0
1001
REVIT
1002
{
1070
     3
1000
224252
1002
}
  0
LINE
  5
40A
  8
0
 10
-400.49999999999989
 20
122.99999999999891
 30
0.0
 11
-416.49999999999989
 21
122.99999999999891
 31
0.0
1001
REVIT
1002
{
1070
     3
1000
224252
1002
}
  0
ARC
  5
40B
  8
0
 10
-416.49999999999989
 20
120.99999999999901
 30
0.0
 40
2.0000000000000031
 50
90.0
 51
179.99999999999881
1001
REVIT
1002
{
1070
     3
1000
224252
1002
}
  0
LINE
  5
40C
  8
0
 10
-418.49999999999977
 20
120.99999999999901
 30
0.0
 11
-418.49999999999977
 21
110.57976337348779
 31
0.0
1001
REVIT
1002
{
1070
     3
1000
224252
1002
}
  0
LINE
  5
40D
  8
0
 10
-418.49999999999977
 20
39.079763373487637
 30
0.0
 11
-418.49999999999977
 21
-30.000000000000281
 31
0.0
1001
REVIT
1002
{
1070
     3
1000
224252
1002
}
  0
ARC
  5
40E
  8
0
 10
-416.49999999999989
 20
-29.999999999999918
 30
0.0
 40
2.0000000000000151
 50
180.0000000000004
 51
270.0
1001
REVIT
1002
{
1070
     3
1000
224252
1002
}
  0
LINE
  5
40F
  8
0
  6
DASH
 10
-98.83964338216623
 20
239.52238341782791
 30
0.0
 11
-127.71028146689029
 21
229.01433051071609
 31
0.0
1001
REVIT
1002
{
1070
     3
1000
217411
1002
}
  0
LINE
  5
410
  8
0
  6
DASH
 10
-128.6499740876761
 20
228.67231036739051
 30
0.0
 11
-324.36587237078419
 21
157.43754901966719
 31
0.0
1001
REVIT
1002
{
1070
     3
1000
217411
1002
}
  0
INSERT
  5
411
  8
0
  6
CONTINUOUS
  2
*X51
 10
0.0
 20
0.0
 30
0.0
1001
ACAD
1000
HATCH
1002
{
1070
    19
1000
FP_1
1040
1.0
1040
0.0
1000
R14_HATCH_DATA
1000
411
1011
1.0
1021
0.0
1031
0.0000000002328306
1021
0.0
1031
0.0
1011
0.0
1021
0.0
1031
0.0000000002328306
1021
1.0
1031
0.0
1011
0.0
1021
0.0
1031
0.0000000002328306
1021
0.0
1031
1.0
1040
0.0
1010
0.0
1020
0.0
1030
1.0
1000
FP_1
1070
     0
1070
     0
1071
        1
1071
        0
1071
        4
1070
     1
1040
-25.000000000000622
1040
-238.781540874287
1040
-25.000000000001432
1040
-19.000000000000309
1070
     1
1040
-25.000000000001432
1040
-19.000000000000309
1040
-65.000000000001265
1040
-19.000000000000309
1070
     1
1040
-65.000000000001265
1040
-19.000000000000309
1040
-65.000000000000469
1040
-238.781540874287
1070
     1
1040
-65.000000000000455
1040
-238.781540874287
1040
-25.000000000000611
1040
-238.781540874287
1071
        0
1070
     0
1070
     2
1040
0.0
1040
1.0
1070
     0
1070
     1
1040
0.0
1040
0.0
1040
0.0004591257134621
1040
0.0
1040
15.0
1070
     0
1071
        1
1040
-45.0
1040
-238.78154087428661
1040
0.0
1002
}
  0
LINE
  5
412
  8
0
 10
-25.000000000001162
 20
-19.000000000000082
 30
0.0
 11
-65.000000000001151
 21
-19.000000000000199
 31
0.0
1001
REVIT
1002
{
1070
     3
1000
224526
1002
}
  0
LINE
  5
413
  8
0
 10
-65.000000000001151
 20
-19.000000000000199
 30
0.0
 11
-65.000000000000426
 21
-238.78154087428669
 31
0.0
1001
REVIT
1002
{
1070
     3
1000
224526
1002
}
  0
LINE
  5
414
  8
0
 10
-25.00000000000043
 20
-238.78154087428661
 30
0.0
 11
-25.000000000001162
 21
-19.000000000000082
 31
0.0
1001
REVIT
1002
{
1070
     3
1000
224526
1002
}
  0
LINE
  5
415
  8
0
 10
-50.999999999999773
 20
-0.9999999999996732
 30
0.0
 11
-400.49999999999989
 21
-0.9999999999996732
 31
0.0
1001
REVIT
1002
{
1070
     3
1000
211597
1002
}
  0
LINE
  5
416
  8
0
 10
-400.49999999999989
 20
-6.9999999999998357
 30
0.0
 11
-50.999999999999773
 21
-6.9999999999998357
 31
0.0
1001
REVIT
1002
{
1070
     3
1000
211597
1002
}
  0
ARC
  5
417
  8
0
 10
-243.00158296984989
 20
182.702155088859
 30
0.0
 40
2.0000000000000022
 50
20.000000000003709
 51
110.00000000000369
1001
REVIT
1002
{
1070
     3
1000
224526
1002
}
  0
ARC
  5
418
  8
0
 10
-380.19670560458928
 20
132.76721416330281
 30
0.0
 40
1.999999999999998
 50
110.00000000000369
 51
200.00000000000369
1001
REVIT
1002
{
1070
     3
1000
224526
1002
}
  0
ARC
  5
419
  8
0
 10
-373.01428259474898
 20
113.0336691267992
 30
0.0
 40
2.0
 50
200.00000000000369
 51
290.00000000000313
1001
REVIT
1002
{
1070
     3
1000
224526
1002
}
  0
ARC
  5
41A
  8
0
 10
-235.8191599600095
 20
162.9686100523555
 30
0.0
 40
2.0
 50
290.00000000000369
 51
20.000000000003709
1001
REVIT
1002
{
1070
     3
1000
224526
1002
}
  0
LINE
  5
41B
  8
0
 10
-243.6856232565014
 20
184.5815403304309
 30
0.0
 11
-363.4438994367901
 21
140.993092493766
 31
0.0
1001
REVIT
1002
{
1070
     3
1000
224526
1002
}
  0
LINE
  5
41C
  8
0
 10
-364.38359205757592
 20
140.6510723504403
 30
0.0
 11
-380.88074589124068
 21
134.64659940487459
 31
0.0
1001
REVIT
1002
{
1070
     3
1000
224526
1002
}
  0
LINE
  5
41D
  8
0
 10
-382.07609084616098
 20
132.08317387665139
 30
0.0
 11
-374.89366783632067
 21
112.3496288401478
 31
0.0
1001
REVIT
1002
{
1070
     3
1000
224526
1002
}
  0
LINE
  5
41E
  8
0
 10
-372.33024230809758
 20
111.1542838852275
 30
0.0
 11
-235.1351196733581
 21
161.0892248107838
 31
0.0
1001
REVIT
1002
{
1070
     3
1000
224526
1002
}
  0
LINE
  5
41F
  8
0
 10
-380.19670560458951
 20
132.76721416330301
 30
0.0
 11
-362.83589470341173
 21
136.39880881772521
 31
0.0
  0
LINE
  5
420
  8
0
 10
-361.84700740447619
 20
136.60566769367759
 30
0.0
 11
-235.8191599600095
 21
162.96861005235559
 31
0.0
  0
LINE
  5
421
  8
0
 10
-243.00158296984989
 20
182.70215508885931
 30
0.0
 11
-356.7057074538003
 21
121.7727672421867
 31
0.0
  0
LINE
  5
422
  8
0
 10
-357.14941116167421
 20
121.5350045802889
 30
0.0
 11
-373.01428259474898
 21
113.0336691267992
 31
0.0
  0
LINE
  5
423
  8
0
 10
200.0398966348659
 20
317.44448421336529
 30
0.0
 11
-400.00136133997353
 21
99.047326978876754
 31
0.0
1001
REVIT
1002
{
1070
     3
1000
206265
1002
}
  0
LINE
  5
424
  8
0
 10
-400.00136133997381
 20
-7.3704502687146984
 30
0.0
 11
-398.98355759164849
 21
-6.9999999999997513
 31
0.0
1001
REVIT
1002
{
1070
     3
1000
206265
1002
}
  0
LINE
  5
425
  8
0
 10
-382.49869307492048
 20
-0.9999999999996305
 30
0.0
 11
0.0000000000003979
 21
138.2181389249952
 31
0.0
1001
REVIT
1002
{
1070
     3
1000
206265
1002
}
  0
LINE
  5
426
  8
0
 10
100.0000000000005
 20
174.6151623516154
 30
0.0
 11
200.0398966348655
 21
211.0267069657738
 31
0.0
1001
REVIT
1002
{
1070
     3
1000
206265
1002
}
  0
LINE
  5
427
  8
0
 10
100.0000000000006
 20
-238.78154087428709
 30
0.0
 11
100.00000000000129
 21
124.6151623516176
 31
0.0
1001
REVIT
1002
{
1070
     3
1000
206265
1002
}
  0
LINE
  5
428
  8
0
 10
0.0000000000012079
 20
124.6151623516178
 30
0.0
 11
0.0000000000004974
 21
-238.78154087428689
 31
0.0
1001
REVIT
1002
{
1070
     3
1000
206265
1002
}
  0
LINE
  5
429
  8
0
 10
-50.999999999999261
 20
65.000000000000512
 30
0.0
 11
-201.16518339091471
 21
65.000000000000512
 31
0.0
1001
REVIT
1002
{
1070
     3
1000
206265
1002
}
  0
LINE
  5
42A
  8
0
 10
-399.99999999999972
 20
-9.9999999999996572
 30
0.0
 11
-50.999999999999261
 21
-9.9999999999996572
 31
0.0
1001
REVIT
1002
{
1070
     3
1000
206265
1002
}
  0
VIEWPORT
  5
31B
 67
     1
  8
0
 10
128.5
 20
97.5
 30
0.0
 40
625.60341753343243
 41
222.18000000000001
 68
     1
 69
     1
1001
ACAD
1000
MVIEW
1002
{
1070
    16
1010
0.0
1020
0.0
1030
0.0
1010
0.0
1020
0.0
1030
1.0
1040
0.0
1040
222.18000000000001
1040
128.5
1040
97.5
1040
50.0
1040
0.0
1040
0.0
1070
     0
1070
   100
1070
     1
1070
     1
1070
     0
1070
     0
1070
     0
1070
     0
1040
0.0
1040
0.0
1040
0.0
1040
10.0
1040
10.0
1040
10.0
1040
10.0
1070
     0
1002
{
1002
}
1002
}
  0
VIEWPORT
  5
31F
 67
     1
  8
0
 10
128.5
 20
97.5
 30
0.0
 40
205.59999999999999
 41
156.0
 68
     2
 69
     2
1001
ACAD
1000
MVIEW
1002
{
1070
    16
1010
0.0
1020
0.0
1030
0.0
1010
0.0
1020
0.0
1030
1.0
1040
0.0
1040
781.04218695351244
1040
-221.86156376785959
1040
122.78259259999101
1040
50.0
1040
0.0
1040
0.0
1070
     0
1070
  1000
1070
     1
1070
     1
1070
     0
1070
     0
1070
     0
1070
     0
1040
0.0
1040
0.0
1040
0.0
1040
1.0
1040
1.0
1040
0.0
1040
0.0
1070
     0
1002
{
1002
}
1002
}
  0
ENDSEC
  0
EOF
